<?xml version="1.0" standalone="no"?> 
<!DOCTYPE svg PUBLIC "-//W3C//DTD SVG 1.1//EN" "http://www.w3.org/Graphics/SVG/1.1/DTD/svg11.dtd" >
<svg xmlns="http://www.w3.org/2000/svg">
<defs>
  <font id="ketcher" horiz-adv-x="1000">
    <font-face font-family="ketcher"
      units-per-em="1000" ascent="1000"
      descent="0" />
    <missing-glyph horiz-adv-x="0" />
    <glyph glyph-name="about"
      unicode="&#xEA01;"
      horiz-adv-x="1000" d=" M666.66667 187.5L666.66667 291.66667C666.66667 303.38542 657.5520799999999 312.5 645.8333299999999 312.5L583.3333299999999 312.5L583.3333299999999 645.8333299999999C583.3333299999999 657.5520799999999 574.2187499999999 666.6666700000001 562.4999999999999 666.6666700000001L354.1666699999999 666.6666700000001C342.4479199999999 666.6666700000001 333.3333299999999 657.5520799999999 333.3333299999999 645.8333299999999L333.3333299999999 541.6666700000001C333.3333299999999 529.9479200000001 342.4479199999999 520.8333299999999 354.1666699999999 520.8333299999999L416.6666699999999 520.8333299999999L416.6666699999999 312.5L354.1666699999999 312.5C342.4479199999999 312.5 333.3333299999999 303.38542 333.3333299999999 291.66667L333.3333299999999 187.5C333.3333299999999 175.78125 342.4479199999999 166.66667 354.1666699999999 166.66667L645.8333299999999 166.66667C657.5520799999999 166.66667 666.66667 175.78125 666.66667 187.5zM583.3333299999999 770.83333L583.3333299999999 875C583.3333299999999 886.71875 574.2187499999999 895.83333 562.4999999999999 895.83333L437.4999999999999 895.83333C425.7812499999999 895.83333 416.6666699999999 886.71875 416.6666699999999 875L416.6666699999999 770.83333C416.66667 759.1145799999999 425.78125 750 437.5 750L562.5 750C574.21875 750 583.33333 759.1145799999999 583.33333 770.8333299999999zM1000 500C1000 223.9583299999999 776.0416700000001 0 500 0C223.95833 0 0 223.9583300000001 0 500C0 776.0416700000001 223.95833 1000 500 1000C776.0416700000001 1000 1000 776.0416700000001 1000 500z" />
    <glyph glyph-name="analyse"
      unicode="&#xEA02;"
      horiz-adv-x="1000" d=" M585.781 723.9449999999999L577.0509999999999 708.1479999999999H559.59S534.645 708.1479999999999 527.9920000000001 673.227L520.926 638.305H568.734L560.004 620.8439999999999H518.43L493.4879999999999 498.6139999999999C483.0939999999999 446.2299999999999 445.676 446.2299999999999 445.676 446.2299999999999H391.6289999999999L398.6989999999999 463.6909999999999H415.7419999999999S442.3519999999999 463.6909999999999 449.4179999999999 498.6129999999999L474.3629999999999 620.843H435.7L444.43 638.305H478.106L485.173 673.227C495.567 725.6089999999999 532.981 725.6089999999999 532.981 725.6089999999999zM585.781 537.277L552.1049999999999 583.4259999999999L540.0509999999999 575.941L527.992 568.0429999999999L562.5 515.2429999999999L504.71 459.535L524.668 439.578L578.715 491.547L615.715 435.4220000000001L627.773 443.3200000000001L639.828 450.8050000000001L598.254 511.5040000000001L655.625 566.797L645.648 576.7730000000001L635.672 587.1680000000001zM752.078 560.559C751.711 468.953 696.996 386.305 612.805 350.195A113.081 113.081 0 0 0 598.6679999999999 311.945C579.0659999999999 276.6329999999999 542.9259999999999 253.637 502.6329999999999 250.8319999999999H110.172A118.487 118.487 0 0 0 16.629 311.532A124.73600000000002 124.73600000000002 0 0 0 12.055 426.6919999999999L192.906 783.3979999999999A41.618 41.618 0 0 1 198.726 800.8589999999999V919.762C183.559 924.472 173.48 938.82 174.196 954.684C173.78 983.785 196.23 999.168 225.331 999.168H387.471A41.57 41.57 0 0 0 436.112 955.102C437.0220000000001 937.996 425.1040000000001 922.872 408.257 919.762V801.273C408.257 795.039 413.663 789.219 416.573 783.813L424.472 771.3399999999999C495.808 801.887 577.682 794.812 642.722 752.4839999999999C707.761 710.152 747.382 638.156 748.335 560.559M87.723 355.184C92.711 347.285 101.027 333.98 110.586 333.98H479.766C368.3520000000001 351.871 286.223 447.7200000000001 285.617 560.5600000000001A228.22900000000004 228.22900000000004 0 0 0 354.629 723.946L342.156 746.399A127.586 127.586 0 0 0 324.281 801.274V916.02H282.707V801.273A133.024 133.024 0 0 0 268.152 744.316L86.472 385.531A34.522 34.522 0 0 1 86.472 355.598M516.77 372.227C620.504 373.375 703.777 458.191 703.016 561.93C702.254 665.6679999999999 617.746 749.2579999999999 514.0039999999999 748.8789999999999C410.2659999999999 748.5 326.3639999999999 664.3009999999999 326.3589999999999 560.559C327.043 456.019 412.2269999999999 371.769 516.7689999999999 372.227" />
    <glyph glyph-name="arom"
      unicode="&#xEA03;"
      horiz-adv-x="1000" d=" M461.48649 444.30946L443.35946 379.04189L383.79189 379.04189L461.48649 633.17972L536.92162 633.17972L615.69459 379.04189L553.81621 379.04189L534.25135 444.30946zM525.93243 487.3418899999999L510.06486 541.26081C505.5973 556.2554 501.02703 575.1527 497.27838 590.24999L496.50811 590.24999C492.70811 575.2554 488.95946 555.9472900000001 484.8000000000001 541.26081L469.7540500000001 487.34189zM261.5 913.03125C182.01696 775.33397 102.49955 637.65651 23 499.96875C102.52601 362.31715 182.01303 224.64292 261.5 86.96875C420.5 86.96875 579.5 86.96875 738.5 86.96875C817.98707 224.6428600000001 897.47388 362.31721 977 499.96875C897.50049 637.65653 817.983 775.33395 738.5 913.03125C579.5 913.03125 420.5 913.03125 261.5 913.03125zM276.34375 887.375C425.44792 887.375 574.5520799999999 887.375 723.65625 887.375C798.20833 758.25 872.76042 629.125 947.3125 500C872.76042 370.875 798.20833 241.75 723.65625 112.625C574.5520799999999 112.625 425.44792 112.625 276.34375 112.625C201.79167 241.75 127.23958 370.875 52.6875 500C127.23958 629.125 201.79167 758.25 276.34375 887.375zM500 758C374.04836 760.70488 257.52291 657.96879 244.04439 532.7920799999999C225.70876 410.09885 309.65836 283.4400000000001 429.4141200000001 251.74096C546.18673 216.02345 681.70279 277.30252 732.56859 388.17012C787.72264 497.25203 750.317 641.57869 649.3252 710.3507099999999C606.10754 741.2715499999999 553.13905 758.16416 500 758zM500 732.34375C615.57457 735.06674 722.02818 638.97419 731.17737 523.75089C745.29763 410.91242 663.81297 296.8503800000001 552.53849 273.5665800000001C444.05716 246.13 322.67939 309.8420200000001 283.7264 414.73272C240.65276 518.1315999999999 285.98523 647.76703 384.27419 701.57479C419.26475 721.76614 459.61245 732.42458 500 732.34375z" />
    <glyph glyph-name="bond-any"
      unicode="&#xEA04;"
      horiz-adv-x="1000" d=" M807.5889 626.29546L790.17223 657.0414599999999L957.58334 739.32083L975.00001 708.62318zM550.1916699999999 502.97308L532.775 533.71908L707.25834 618.1738799999999L724.6750099999999 587.42788zM297.49167 384.00155L280.075 414.6991999999999L447.4861199999999 497.0752699999999L464.9027799999999 466.2809299999999zM42.416668 260.67917L25.000001 291.4735100000001L199.48334 375.92831L216.9 345.18232z" />
    <glyph glyph-name="bond-aromatic"
      unicode="&#xEA05;"
      horiz-adv-x="1000" d=" M354.5584600000001 544.4100599999999L337.56873 577.07043L544.13636 685.23483L561.07332 652.57446zM667.12719 707.6064L650.19023 740.26677L856.75785 848.4311700000001L873.69481 815.7708zM41.936961 381.2137300000001L24.999999 413.8741L231.56762 522.0385L248.50458 489.37813zM142.83324 151.5688300000001L125.93585 184.1764400000001L958.10262 615.39625L975.00001 582.78864z" />
    <glyph glyph-name="bond-crossed"
      unicode="&#xEA06;"
      horiz-adv-x="1000" d=" M214.92692 43.53541C189.8034 55.75531 170.00797 69.12878 197.28383 92.69361C382.73782 380.61726 568.19182 668.54092 753.64582 956.464583C778.76894 944.244214 798.55569 930.868713 771.28239 907.306301C585.83056 619.38267 400.37874 331.45904 214.92692 43.53541zM39.649459 243.26738C23.919163 266.35348 13.307802 287.82193 48.705005 294.7512400000001C352.58686 452.70313 656.46869 610.65501 960.35054 768.60691C976.08086 745.52082 986.69218 724.0523800000001 951.295 717.12307C647.41315 559.1711700000001 343.53131 401.2192800000001 39.649459 243.26738z" />
    <glyph glyph-name="bond-double"
      unicode="&#xEA07;"
      horiz-adv-x="1000" d=" M41.850878 384.69849L25.000005 417.2065L855.18403 847.40164L872.0349 814.88705zM145.33039 152.59836L128.44654 185.09318L958.11615 616.33696L975 583.84875z" />
    <glyph glyph-name="bond-doublearomatic"
      unicode="&#xEA08;"
      horiz-adv-x="1000" d=" M924.75556 611.2027800000001L975 611.2027800000001L975 560.58889L924.75556 560.58889zM814.71389 850.02223L864.9583299999999 850.02223L864.9583299999999 799.35556L814.71389 799.35556zM355.91666 604.18334L406.16111 604.18334L406.16111 553.5694500000001L355.91666 553.5694500000001zM470.60278 365.4694500000001L520.84722 365.4694500000001L520.84722 314.8027800000001L470.60278 314.8027800000001zM618.11667 395.8166700000001L600.85833 429.1194500000001L811.28333 539.21389L828.5944499999999 505.96389zM149.97777 149.9777800000001L132.71944 183.28056L343.09166 293.42778L360.40278 260.125zM496.46389 627.5638900000001L479.15278 660.8666700000001L689.5777800000001 771.0138900000001L706.8361100000001 737.7111100000001zM42.258329 386.4222200000001L24.999996 419.725L235.425 529.87222L252.68333 496.56945z" />
    <glyph glyph-name="bond-down"
      unicode="&#xEA09;"
      horiz-adv-x="1000" d=" M935.1657 348.52014L599.14704 863.62163L638.98135 889.60167L975 374.5067800000001zM823.74444 318.0341600000001L526.55071 773.77343L566.29265 799.79306L863.48638 344.1593400000001zM712.32317 287.6471400000001L453.8884 683.96483L493.66993 709.91188L752.11131 313.5941900000001zM600.86234 257.3393L381.14693 594.32774L420.94165 620.34737L640.65706 283.4117zM489.50045 226.99186L308.47142 504.6049L348.26614 530.6773000000001L529.2424 253.01149zM378.13857 196.6444300000001L235.8487 414.98761L275.59064 440.9544600000001L417.82774 222.6640600000001zM266.7635 166.38276L163.18638 325.23839L202.93493 351.15246L306.51203 192.29683zM155.25647 135.94957L90.392131 235.43637L130.1868500000001 261.4559900000001L195.0511900000001 162.02197zM51.16478 110.39834L25.000011 150.55592L64.801335 176.48318L90.966087 136.3322z" />
    <glyph glyph-name="bond-single"
      unicode="&#xEA0A;"
      horiz-adv-x="1000" d=" M43.960687 239.79535L25.000012 276.2719L956.03271 760.20464L974.99999 723.72811z" />
    <glyph glyph-name="bond-singlearomatic"
      unicode="&#xEA0B;"
      horiz-adv-x="1000" d=" M144.81672 157.35699L127.97985 189.8766000000001L958.16973 619.74089L975 587.22786zM798.40091 842.643L847.67824 842.643L847.67824 793.0491099999999L798.40091 793.0491099999999zM349.04859 601.95435L398.27317 601.95435L398.27317 552.36046L349.04859 552.36046zM486.6980199999999 624.85196L469.7622299999999 657.40454L675.8406799999999 765.29764L692.7237099999999 732.74505zM41.935778 388.6478600000001L24.999991 421.2532L231.02568 529.1463L247.96147 496.54095z" />
    <glyph glyph-name="bond-singledouble"
      unicode="&#xEA0C;"
      horiz-adv-x="1000" d=" M407.50181 427.58487L390.34808 460.67837L599.46525 570.1455699999999L616.61898 537.10484zM765.83004 613.79521L748.67631 646.8359399999999L957.84627 756.35591L975 723.2624000000001zM42.100958 236.78261L25.000008 269.8761100000001L234.11718 379.3433L251.27091 346.3025800000001zM679.74471 308.88105L662.59098 341.97456L871.76093 451.44175L888.91466 418.40103zM326.06117 122.67071L308.90744 155.76422L518.02461 265.28419L535.17834 232.2434600000001zM486.62009 734.7686L469.46636 767.8621L678.58353 877.32929L695.73726 844.2885699999999zM128.23908 543.96633L111.08534 577.0070599999999L320.20252 686.52703L337.35625 653.48631z" />
    <glyph glyph-name="bond-triple"
      unicode="&#xEA0D;"
      horiz-adv-x="1000" d=" M226.3235 106.13085L211.12878 135.4585100000001L959.81188 523.32628L975 494.00521zM130.63762 289.50294L115.39673 318.80423L863.40056 707.93822L878.64146 678.6435299999999zM40.194716 476.67372L24.999992 505.99479L773.68311 893.86915L788.8712300000001 864.54808z" />
    <glyph glyph-name="bond-up"
      unicode="&#xEA0E;"
      horiz-adv-x="1000" d=" M24.999996 110.9749900000001L661.975 889.025L975 404.15555z" />
    <glyph glyph-name="bond-updown"
      unicode="&#xEA0F;"
      horiz-adv-x="1000" d=" M56.508328 116.64861L24.999995 133.95972L111.08055 291.4486100000001L263.97777 234.87083L249.88611 486.4625L480.31389 314.14305L385.57777 681.47639L691.58333 397.2152700000001L509.025 883.35139L975 412.15138L949.45556 386.87083L601.86111 738.2652800000001L778.87778 267.0125000000001L451.12778 571.54027L540.63889 224.10416L290.10277 411.4652700000001L302.98055 182.09305L127.75833 246.9041600000001z" />
    <glyph glyph-name="chain"
      unicode="&#xEA10;"
      horiz-adv-x="1000" d=" M337.18056 352.96111L24.999998 570.03611L24.999998 647.0388899999999L337.18056 434.87223L645.35 647.03889L975 434.87223L975 352.96111L645.35 570.03611z" />
    <glyph glyph-name="charge-minus"
      unicode="&#xEA11;"
      horiz-adv-x="1000" d=" M620.54621 894.36975C620.54621 850.72829 620.54621 807.0868399999999 620.54621 763.44538C738.6974799999999 763.44538 856.8487399999999 763.44538 975.00001 763.44538C975.00001 807.0868399999999 975.00001 850.72829 975.00001 894.3697500000001C856.84874 894.3697500000001 738.69748 894.3697500000001 620.54621 894.3697500000001zM646.0924299999999 868.82353C747.2128799999999 868.82353 848.3333399999999 868.82353 949.45379 868.82353C949.45379 842.21289 949.45379 815.6022399999999 949.45379 788.9916000000001C848.3333399999999 788.9916000000001 747.2128799999999 788.9916000000001 646.0924299999999 788.9916000000001C646.0924299999999 815.6022399999999 646.0924299999999 842.21289 646.0924299999999 868.82353zM315.58824 945.462184C217.79313 648.83161 121.28736 351.6839300000001 24.999992 54.53781C71.30251 54.53781 117.60504 54.53781 163.90756 54.53781C189.022 145.6225300000001 219.67637 235.3906900000001 246.93277 325.9663800000001C338.47338 325.9663800000001 430.01401 325.9663800000001 521.55462 325.9663800000001C550.51277 235.4078400000001 581.97167 145.5060900000001 609.36975 54.53781C656.20448 54.53781 703.03923 54.53781 749.8739599999999 54.53781C654.06097 351.66512 558.18172 648.84346 460.88235 945.462184C412.45098 945.462184 364.0196 945.462184 315.58824 945.462184zM333.15125 919.915965C369.8739500000001 919.915965 406.59664 919.915965 443.3193300000001 919.915965C533.79552 639.97198 624.27171 360.0280200000001 714.7479000000001 80.08403C686.00841 80.08403 657.2689100000001 80.08403 628.5294200000001 80.08403C599.06785 170.49185 571.1162300000001 261.44342 540.7142900000001 351.5126C436.9327800000001 351.5126 333.1512500000001 351.5126 229.3697400000001 351.5126C199.8554200000001 261.49897 173.1722300000001 170.4834100000001 144.7479000000001 80.08403C117.0728300000001 80.08403 89.3977510000001 80.08403 61.7226860000001 80.08403C152.19887 360.02802 242.67506 639.97198 333.15125 919.915965zM371.47058 846.47059C340.41756 700.6472 288.72935 560.31389 243.81926 418.3916300000001C248.90362 407.8577 281.77683 416.7878400000001 297.60834 413.7815100000001C373.85374 413.7815100000001 450.0991400000001 413.7815100000001 526.34454 413.7815100000001C483.4911300000001 558.22634 427.1532100000001 698.87363 395.42016 846.47059C387.4369700000001 846.47059 379.45377 846.47059 371.47058 846.47059zM384.24369 792.18487C411.39297 671.94689 455.8919599999999 556.71855 492.81512 439.32773C420.96638 439.32773 349.11765 439.32773 277.26891 439.32773C313.90456 556.6416099999999 358.36291 671.79054 384.24369 792.18487z" />
    <glyph glyph-name="charge-plus"
      unicode="&#xEA12;"
      horiz-adv-x="1000" d=" M731.65625 955.8125C731.65625 918.447917 731.65625 881.08333 731.65625 843.71875C694.27083 843.71875 656.88542 843.71875 619.5 843.71875C619.5 799.96875 619.5 756.21875 619.5 712.46875C656.88542 712.46875 694.27083 712.46875 731.65625 712.46875C731.65625 675.1041700000001 731.65625 637.7395799999999 731.65625 600.375C775.41667 600.375 819.17708 600.375 862.9375 600.375C862.9375 637.7395799999999 862.9375 675.1041700000001 862.9375 712.46875C900.29167 712.46875 937.64583 712.46875 975 712.46875C975 756.21875 975 799.96875 975 843.71875C937.64583 843.71875 900.29167 843.71875 862.9375 843.71875C862.9375 881.0833299999999 862.9375 918.447917 862.9375 955.8125C819.17708 955.8125 775.41667 955.8125 731.65625 955.8125zM757.3125 930.15625C783.96875 930.15625 810.625 930.15625 837.28125 930.15625C837.28125 892.78125 837.28125 855.40625 837.28125 818.03125C874.625 818.03125 911.96875 818.03125 949.3125 818.03125C949.3125 791.40625 949.3125 764.78125 949.3125 738.15625C911.96875 738.15625 874.625 738.15625 837.28125 738.15625C837.28125 700.78125 837.28125 663.40625 837.28125 626.03125C810.625 626.03125 783.96875 626.03125 757.3125 626.03125C757.3125 663.40625 757.3125 700.78125 757.3125 738.15625C719.92708 738.15625 682.54167 738.15625 645.15625 738.15625C645.15625 764.78125 645.15625 791.40625 645.15625 818.03125C682.54167 818.03125 719.92708 818.03125 757.3125 818.03125C757.3125 855.40625 757.3125 892.78125 757.3125 930.15625zM310.90625 938.21875C213.95258 640.22041 117.08177 342.19503 20.15625 44.1875C66.447917 44.1875 112.73958 44.1875 159.03125 44.1875C187.29188 135.22262 215.50691 226.27192 243.75 317.3125C335.26042 317.3125 426.77083 317.3125 518.28125 317.3125C547.76081 226.2709600000001 577.23718 135.22839 606.71875 44.1875C653.77083 44.1875 700.82292 44.1875 747.875 44.1875C650.99701 342.1969400000001 554.10775 640.20274 457.25 938.21875C408.46875 938.21875 359.6875 938.21875 310.90625 938.21875zM329.5625 912.53125C365.90625 912.53125 402.25 912.53125 438.59375 912.53125C529.90625 631.6354200000001 621.21875 350.7395800000001 712.53125 69.84375C683.48958 69.84375 654.44792 69.84375 625.40625 69.84375C595.92659 160.89567 566.45093 251.94889 536.96875 343C432.92708 343 328.88542 343 224.84375 343C196.58251 251.95465 168.36819 160.89471 140.125 69.84375C111.91667 69.84375 83.708333 69.84375 55.5 69.84375C146.85417 350.7395800000001 238.20833 631.6354200000001 329.5625 912.53125zM367.625 839C339.10246 697.48581 287.8861 562.21667 245.14972 424.69932C236.26161 408.3624699999999 239.61308 400.94049 258.68053 404.9375C346.87035 404.9375 435.06018 404.9375 523.25 404.9375C473.04087 561.83379 426.80248 694.6182 391.71875 839C383.6875 839 375.65625 839 367.625 839zM380.21875 778.125C409.98858 660.47182 451.67912 546.32674 487.9375 430.59375C416.625 430.59375 345.3125 430.59375 274 430.59375C309.99584 546.2410199999999 352.14073 660.1766299999999 380.21875 778.125z" />
    <glyph glyph-name="check"
      unicode="&#xEA13;"
      horiz-adv-x="1000" d=" M361.875 396.625L141.75 625H246.375L352.875 512.5L518.625 748.375L612 751zM375 1000C167.895 1000 0 832.105 0 625S167.895 250 375 250S750 417.895 750 625S582.105 1000 375 1000zM375 1000" />
    <glyph glyph-name="chiral-flag"
      unicode="&#xEA14;"
      horiz-adv-x="2000" d=" M0 142.8571428571428H1971.4285714285716V857.1428571428571H0zM1942.857142857143 828.5714285714286V171.4285714285713H28.5714285714286V828.5714285714286z M600 338.8571428571428A110 110 0 0 1 677.4285714285714 365.4285714285714A87.71428571428571 87.71428571428571 0 0 1 706.0000000000001 434.8571428571428V434.8571428571428H660.0000000000001A59.714285714285715 59.714285714285715 0 0 0 644.8571428571429 390.8571428571428A59.714285714285715 59.714285714285715 0 0 0 600.5714285714286 375.7142857142857A55.42857142857143 55.42857142857143 0 0 0 553.7142857142857 398.5714285714286A94.57142857142858 94.57142857142858 0 0 0 536.5714285714286 455.7142857142857V512.2857142857142A95.14285714285714 95.14285714285714 0 0 0 553.4285714285713 569.4285714285713A54 54 0 0 0 599.1428571428571 592.2857142857142A62.285714285714285 62.285714285714285 0 0 0 644.5714285714286 577.1428571428571A57.142857142857146 57.142857142857146 0 0 0 660 533.4285714285714H706V533.4285714285714A85.71428571428572 85.71428571428572 0 0 1 677.4285714285713 603.4285714285714A114.28571428571429 114.28571428571429 0 0 1 600 631.4285714285713A102.28571428571425 102.28571428571425 0 0 1 520.5714285714286 597.7142857142857A122.85714285714283 122.85714285714283 0 0 1 490 512V457.1428571428571A121.42857142857144 121.42857142857144 0 0 1 520.8571428571428 371.4285714285715A104.2857142857143 104.2857142857143 0 0 1 600 338.8571428571428z M793.4285714285714 498.8571428571428A47.714285714285715 47.714285714285715 0 0 0 811.7142857142858 513.7142857142858A59.714285714285715 59.714285714285715 0 0 0 838.0000000000001 519.1428571428571A36 36 0 0 0 866.5714285714287 508A54.57142857142858 54.57142857142858 0 0 0 876.2857142857143 472V342.8571428571428H923.7142857142856V471.7142857142857A96 96 0 0 1 904.8571428571428 537.1428571428571A66.57142857142857 66.57142857142857 0 0 1 852.2857142857143 558.2857142857142A69.14285714285714 69.14285714285714 0 0 1 818.8571428571428 550A75.14285714285715 75.14285714285715 0 0 1 793.1428571428571 526.8571428571429V647.4285714285713H746V342.8571428571428H793.4285714285714z M976 647.4285714285713H1023.4285714285714V605.7142857142857H976V647.4285714285713z M976 554.2857142857142H1023.4285714285714V342.8571428571428H976V554.2857142857142z M1123.4285714285716 489.7142857142857A38.57142857142857 38.57142857142857 0 0 0 1137.7142857142858 506.2857142857142A42.57142857142858 42.57142857142858 0 0 0 1160.857142857143 512.2857142857142L1181.1428571428573 512.2857142857142L1186.8571428571431 556.5714285714287L1180.0000000000002 558.2857142857143L1172.0000000000002 558.2857142857143A48 48 0 0 1 1143.4285714285716 549.1428571428571A68 68 0 0 1 1122.8571428571431 523.7142857142858L1119.714285714286 554.2857142857143H1076V342.8571428571428H1123.4285714285713z M1299.7142857142858 467.1428571428571A116.57142857142858 116.57142857142858 0 0 1 1231.4285714285716 450A55.142857142857146 55.142857142857146 0 0 1 1207.142857142857 402.2857142857142A61.714285714285715 61.714285714285715 0 0 1 1224.857142857143 355.7142857142857A70.28571428571428 70.28571428571428 0 0 1 1275.4285714285716 338.8571428571428A65.71428571428571 65.71428571428571 0 0 1 1311.1428571428573 348.8571428571429A81.42857142857143 81.42857142857143 0 0 1 1336.857142857143 373.7142857142858A114.28571428571429 114.28571428571429 0 0 1 1339.142857142857 358.5714285714286Q1340.857142857143 350.8571428571429 1343.4285714285713 342.8571428571428H1391.4285714285716A131.1428571428571 131.1428571428571 0 0 0 1385.7142857142858 366.2857142857142A171.42857142857144 171.42857142857144 0 0 0 1384 391.4285714285714V485.7142857142857A66.00000000000001 66.00000000000001 0 0 1 1361.4285714285716 539.7142857142858A90.57142857142858 90.57142857142858 0 0 1 1302 558.5714285714286A94.85714285714285 94.85714285714285 0 0 1 1240.2857142857142 539.1428571428571A52.285714285714285 52.285714285714285 0 0 1 1218 494.8571428571428V494.8571428571428H1263.7142857142858A24.571428571428573 24.571428571428573 0 0 0 1273.142857142857 514.8571428571429A39.71428571428571 39.71428571428571 0 0 0 1298.8571428571427 522.5714285714284A38.57142857142857 38.57142857142857 0 0 0 1327.4285714285713 513.1428571428571A34.57142857142857 34.57142857142857 0 0 0 1337.142857142857 487.142857142857V468.5714285714286zM1336.5714285714287 406.2857142857142A45.42857142857143 45.42857142857143 0 0 0 1317.4285714285716 385.7142857142857A59.14285714285713 59.14285714285713 0 0 0 1285.4285714285716 376.8571428571429A32.857142857142854 32.857142857142854 0 0 0 1262.5714285714287 384A24.571428571428573 24.571428571428573 0 0 0 1254.5714285714287 403.1428571428571A31.142857142857142 31.142857142857142 0 0 0 1266.2857142857144 427.1428571428572A47.714285714285715 47.714285714285715 0 0 0 1298.5714285714287 437.4285714285715H1336.2857142857144z M1436.2857142857144 647.4285714285713H1483.7142857142858V342.8571428571428H1436.2857142857144V647.4285714285713z" />
    <glyph glyph-name="cip"
      unicode="&#xEA15;"
      horiz-adv-x="1000" d=" M376.223 299.05L750 830.009L503.375 955.844L375.175 305.3400000000001L246.974 955.844L0 830.008L373.777 299.05V294.155L375.875 297.3L377.969 294.155zM82.789 809.388L206.102 872.306L271.426 541.2860000000001zM82.789 809.388" />
    <glyph glyph-name="clean"
      unicode="&#xEA16;"
      horiz-adv-x="1000" d=" M750 375C750.598 325.246 721.629 279.875 676.242 259.48C630.8589999999999 239.086 577.699 247.5550000000001 540.895 281.035C504.085 314.52 490.645 366.645 506.668 413.75L375 552.082L243.332 413.75C260.137 362.207 241.805 305.7100000000001 197.938 273.855C154.074 242 94.672 242.0550000000001 50.863 273.985C7.055 305.9170000000001 -11.18 362.448 5.72 413.9600000000001C22.613 465.473 70.789 500.223 125 500A125.01900000000002 125.01900000000002 0 0 0 189.582 481.25L333.332 625V757.5C275.938 777.793 241.504 836.4839999999999 251.801 896.488C262.094 956.492 314.12 1000.352 375 1000.352S487.906 956.492 498.2 896.488C508.496 836.484 474.063 777.793 416.668 757.5V625L560.418 481.25C598.906 504.477 646.898 505.25 686.113 483.27C725.328 461.293 749.723 419.953 750 375zM750 375" />
    <glyph glyph-name="copy"
      unicode="&#xEA17;"
      horiz-adv-x="1000" d=" M233.625 862.75C217.87379 862.75 206.15625 848.88505 206.15625 833.6875L206.15625 53.96875C206.15625 38.75263 217.87649 25 233.625 25L820.25 25L825.28125 25L828.96875 28.40625L959.65625 149.46875L963.78125 153.25L963.78125 158.875L963.78125 833.6875C963.78125 848.98286 952.05893 862.75 936.3125 862.75zM233.625 837.0625L936.3125 837.0625C936.58769 837.0625 938.09375 836.3651199999999 938.09375 833.6875L938.09375 164.46875L815.25 50.6875L233.625 50.6875C233.24917 50.6875 231.8125 51.41731 231.8125 53.96875L231.8125 833.6875C231.8125 836.46293 233.14917 837.0625 233.625 837.0625zM358.39866 230.0973L831.13918 230.0973L831.13918 208.73514L358.39866 208.73514zM358.39866 343.63514L831.13918 343.63514L831.13918 322.2216200000001L358.39866 322.2216200000001zM358.39866 457.22432L831.13918 457.22432L831.13918 435.8108100000001L358.39866 435.8108100000001zM358.39866 570.76216L831.13918 570.76216L831.13918 549.34864L358.39866 549.34864zM358.39866 684.29999L831.13918 684.29999L831.13918 662.9378300000001L358.39866 662.9378300000001zM63.6875 975C47.882118 975 36.21875 961.072555 36.21875 945.875L36.21875 166.28125C36.21875 151.05017 47.829967 137.15625 63.6875 137.15625L206.15625 137.15625L206.15625 162.8125L63.6875 162.8125C63.420709 162.8125 61.90625 163.64207 61.90625 166.28125L61.90625 945.875C61.90625 948.650417 63.265856 949.3125 63.6875 949.3125L766.375 949.3125C766.59533 949.3125 768.1875 948.5526 768.1875 945.875L768.1875 862.75L793.84375 862.75L793.84375 945.875C793.84375 961.170372 782.17629 975 766.375 975z" />
    <glyph glyph-name="cut"
      unicode="&#xEA18;"
      horiz-adv-x="1000" d=" M188.59375 979.4375C146.61985 954.051032 146.65745 897.13698 149.0134 853.75617C156.17668 769.39131 218.37656 705.82872 265.49571 640.34432C309.30068 584.27686 354.93452 529.66728 401.09375 475.53125C381.57292 451.5625 362.05208 427.59375 342.53125 403.625C268.93507 420.80183 200.69538 372.8061800000001 156.25191 318.57171C109.78282 267.65397 64.463222 194.21949 95.742913 124.03936C128.12829 41.86297 231.59293 2.4388 311.6922500000001 37.87285C388.5504100000001 69.88126 445.7251200000001 139.61303 476.9574600000001 215.2423C500.6114900000001 253.83871 472.5677400000001 302.93724 475.4691500000001 334.08218C490.6174700000001 357.3104100000001 505.6637000000001 367.93887 520.80002 338.34845C539.00116 311.0147999999999 496.27883 266.59984 518.64547 229.45297C542.65377 155.1916899999999 595.7536500000001 89.46395 662.89184 49.73559C736.5145 4.3722299999999 844.60514 23.1359 890.54668 98.66742C931.68015 153.8865100000001 914.43834 229.7409 874.3541 280.21254C828.07096 343.05512 763.67222 412.66918 678.25827 406.49983C654.13719 394.36307 645.74177 421.09102 631.92526 435.0023300000001C620.91892 448.52238 609.91259 462.0424400000001 598.90625 475.5625C680.00105 573.39382 766.08272 668.756 830.25675 778.9786799999999C855.85493 834.2928899999999 862.11803 903.30479 834.03092 958.850894C820.59144 987.110211 803.8261 976.945835 792.66856 956.553601C695.10196 836.7024 597.53535 716.8512000000001 499.96875 597C396.17425 724.47686 292.4024800000001 851.97224 188.59375 979.4375zM186.125 941.8125C290.73217 813.3168900000001 395.39914 684.86988 499.96875 556.34375C604.57709 684.83842 709.19895 813.32208 813.8125 941.8125C842.40926 874.84891 820.55018 795.90736 776.54171 740.6983299999999C711.73403 648.18466 638.59012 561.89553 565.53125 475.875C592.90385 442.2102700000001 620.32497 408.5850000000001 647.71875 374.9375C708.15414 396.76329 770.59979 362.21956 810.1052999999999 317.38356C852.75739 270.57922 905.56655 208.71263 883.79532 140.64211C858.71565 67.08136 767.81648 30.12532 697.62151 61.82573C625.88594 92.30158 572.44899 158.6346200000001 545.09375 230.3125C532.60911 263.27848 539.0616 302.54568 565.625 326.71875C543.57477 351.15715 521.72137 375.7727700000001 500.03125 400.53125C478.28602 375.82273 456.55032 351.10298 434.40625 326.75C469.79562 295.4500500000001 465.49507 242.25943 444.41078 204.0856C404.48527 127.85271 334.43418 50.37762 241.77045 50.66374C164.44801 49.96321 88.588278 131.12126 116.81858 208.74393C141.54757 270.73502 187.96882 324.47712 243.26718 361.49176C275.4475 381.8271200000001 316.1572 387.00437 352.3125 374.93745C379.65888 408.6149900000001 407.11214 442.20569 434.46875 475.87495C351.1499 575.5214000000001 264.1063 673.35022 195.90625 784.3125C171.53797 831.7303899999999 164.68558 892.158 186.125 941.8125zM675.6875 327.46875C628.26752 331.59497 596.32415 280.02091 609.65324 237.0743C624.99765 174.91152 675.8902499999999 121.3283800000001 736.60519 101.6461899999999C785.36897 86.42652 838.15325 132.8721599999999 827.49437 183.6443199999999C816.63649 256.00745 749.8688 323.20778 675.6875 327.46875zM324.28125 327.43745C247.85002 322.21884 180.60025 254.05409 172.00716 178.62715C163.85174 124.49549 225.30491 82.77124 273.4375 104.68745C332.90481 130.35837 385.33175 186.1236300000001 392.37735 252.46059C397.35712 293.1144400000001 365.63622 330.0994500000001 324.28125 327.43745zM324.09375 301.7812C380.28622 303.5398300000001 372.82512 229.1407900000001 346.73792 199.00321C320.85349 163.1081899999999 283.57011 124.5319099999999 236.25817 124.71785C187.78944 133.38701 190.58821 195.96997 214.91912 227.5052100000001C238.38453 265.41268 278.01493 299.05326 324.09375 301.7812zM675.875 301.7812C740.99646 295.40535 798.97826 235.08341 802.47682 169.70795C802.43732 122.58079 740.3871899999999 112.11167 710.7468799999999 141.43495C668.5492899999999 170.9108799999999 625.7590299999999 218.89645 634.93941 274.06532C639.1764499999999 292.3197399999999 657.92806 302.8891299999999 675.875 301.7811999999999z" />
    <glyph glyph-name="dearom"
      unicode="&#xEA19;"
      horiz-adv-x="1000" d=" M464.67027 444.30946L446.5432400000001 379.04189L386.9756700000001 379.04189L464.67027 633.17972L540.1054 633.17972L618.87837 379.04189L556.99999 379.04189L537.4351300000001 444.30946zM529.11621 487.3418899999999L513.24864 541.26081C508.78108 556.2554 504.21081 575.1526999999999 500.46216 590.2499899999999L499.6918900000001 590.2499899999999C495.89189 575.2553999999999 492.14324 555.9472899999998 487.9837800000001 541.26081L472.9378300000001 487.3418899999999zM360.21875 809.09375L359.90625 783.4375L620.84375 780.3125L621.125 805.96875L360.21875 809.09375zM760.90625 485.21875L625.6875 255.75L647.8125 242.71875L783.03125 472.1875L760.90625 485.21875zM207.625 485.21875L185.5 472.1875L320.71875 242.71875L342.84375 255.75L207.625 485.21875zM261.5 913.03125C182.01696 775.33397 102.49955 637.65651 23 499.96875C102.52601 362.31715 182.01303 224.64292 261.5 86.96875C420.5 86.96875 579.5 86.96875 738.5 86.96875C817.98707 224.6428600000001 897.47388 362.31721 977 499.96875C897.50049 637.65653 817.983 775.33395 738.5 913.03125C579.5 913.03125 420.5 913.03125 261.5 913.03125zM276.34375 887.375C425.44792 887.375 574.5520799999999 887.375 723.65625 887.375C798.20833 758.25 872.76042 629.125 947.3125 500C872.76042 370.875 798.20833 241.75 723.65625 112.625C574.5520799999999 112.625 425.44792 112.625 276.34375 112.625C201.79167 241.75 127.23958 370.875 52.6875 500C127.23958 629.125 201.79167 758.25 276.34375 887.375z" />
    <glyph glyph-name="dropdown"
      unicode="&#xEA1A;"
      horiz-adv-x="1000" d=" M876.33688 248.9447800000001C876.33688 178.0087600000001 818.60092 120.2728000000001 747.6649 120.2728000000001L201.29682 120.2728000000001C130.3608000000001 120.2728000000001 72.739628 178.0087600000001 72.739628 248.9447800000001L747.55012 923.640487C818.48614 923.640487 876.22209 866.1341 876.22209 795.08329L876.22209 248.9447800000001z" />
    <glyph glyph-name="erase"
      unicode="&#xEA1B;"
      horiz-adv-x="1000" d=" M935.125 868.46875C918.35041 868.1321 903.43329 858.73423 886.96875 846.90625C886.93715 846.88355 886.90655 846.86645 886.87505 846.84375L326.8438 451.53125L326.8125 451.49995L326.75 451.46865C310.48733 439.75424 296.31469 427.6211000000001 284.4375 407.4686500000001C272.56031 387.3162 262.84316 359.83969 252.28125 316.0311500000001L252.28125 315.9686500000001L252.28125 315.9061500000001L204.15625 107.3749L203.46875 104.3749L204.1875 101.4374C209.46995 79.9151900000001 222.84795 63.6529000000001 240.6875 57.5624C258.48509 51.48622 279.05947 55.81548 297.3125 68.90615C297.3555 68.93705 297.3945 68.9689500000001 297.4375 68.99985L928.28125 510.6875L929.125 511.28125L929.875 512C964.05812 545.26218 977.37599 581.64567 974.5625 628.75L974.5938 628.75L972.2813 830.5625L972.25 832.03125L971.90625 833.46875C969.31069 844.01415 965.40749 852.6326300000001 959 859.03125C952.59251 865.4298699999999 943.52838 868.6374000000001 935.125 868.46875zM935.625 842.78125C938.41663 842.83725 939.14385 842.57254 940.84375 840.875C942.44543 839.27554 944.77318 835.40811 946.625 828.53125L948.90625 628.4375L948.90625 628.125L948.93755 627.78125C951.58693 585.6312 942.5024 560.38382 912.53125 531L282.5625 89.9375L282.5 89.875L282.4375 89.8437C269.19173 80.3084700000001 257.67155 78.91444 249 81.87495C240.87042 84.65043 233.81322 91.58991 229.90625 104.87495L277.25 310.03125C277.256 310.05575 277.2754 310.06925 277.2813 310.09375L277.2813 310.15625C287.55545 352.74272 296.81773 377.87186 306.56255 394.40625C316.29721 410.9234 326.39117 419.56098 341.6563 430.5625L341.75 430.625L901.78125 825.9375L901.81255 825.9688L901.87505 826C916.95519 836.83808 930.0418 842.6692 935.62505 842.78125zM736.0625 951.09375C734.00162 951.07105 731.94523 951.01735 729.875 950.90625C702.28649 949.425678 674.08983 940.124012 651.90625 924.15625C651.89455 924.14785 651.88675 924.13344 651.87495 924.125L151.15625 566L151.12495 566C134.85545 554.3071199999999 120.68972 542.14554 108.81245 522C97.009443 501.98042 87.329051 474.68726 76.8437 431.40625C76.304452 430.0186 60.172786 388.39834 45.9062 341.15625C38.653338 317.13927 31.917963 291.8961900000001 28.12495 269.6875C24.331937 247.47881 21.88496 229.02707 29.56245 213.4375C36.120857 200.11826 50.368123 186.26044 70.2187 168.03125C90.069277 149.80206 115.0238 129.17029 140.56245 110.25C166.1011 91.32971 192.08413 74.13816 214.49995 62.78125C225.70786 57.1028 235.99014 52.85916 245.56245 50.65625C255.13476 48.45334 265.14772 47.63396 273.99995 54.03125L275.34375 55L276.40625 56.28125L278.5 58.8125C265.6714 54.09494 252.55821 53.50978 240.6875 57.5625C223.99832 63.26026 211.21692 77.86311 205.3125 97.34375C189.76333 106.74398 172.68724 118.39651 155.84375 130.875C131.04981 149.24357 106.6136 169.44249 87.5625 186.9375C68.511401 204.43251 54.354566 221.2052700000001 52.59375 224.78125C51.027658 227.96129 49.951193 244.9621200000001 53.4375 265.375C56.923807 285.78788 63.394061 310.3230200000001 70.46875 333.75C84.618129 380.60397 101.125 423 101.125 423L101.4375 423.78125L101.625 424.625C111.91239 467.2442 121.18222 492.4224 130.9375 508.96875C140.68473 525.50144 150.80219 534.13275 166.09375 545.125C166.10635 545.134 166.11235 545.1472 166.12505 545.1563L666.84375 903.25L666.875 903.28125C687.62164 918.225579 718.634 925.971903 744.96875 924.78125C753.747 924.384366 762.00032 923.008969 769.1875 920.5625C789.99638 913.459924 833.26896 893.53409 870.40625 875.65625C883.64378 869.28372 895.048 863.7002 904.96875 858.8125C914.85338 864.50231 924.61967 868.25792 935.125 868.46875C939.20171 868.5505499999999 943.42854 867.82996 947.4375 866.34375C939.97262 870.10523 913.47659 883.41786 881.5625 898.78125C844.16057 916.786483 801.6453 936.59171 777.46875 944.84375L777.46875 944.875C764.62586 949.246636 750.48863 951.25263 736.0625 951.09375z" />
    <glyph glyph-name="generic-groups"
      unicode="&#xEA1C;"
      horiz-adv-x="1000" d=" M73.129 790.086V386.543H476.355V313.1720000000001H62.133C27.715 313.1720000000001 -0.184 341.0940000000001 -0.184 375.539V790.086zM304.07 656.55L407.074 759.636L358.32 809.5260000000001C347.586 820.256 330.2 820.256 319.465 809.5260000000001L256.415 745.327C245.695 734.585 245.695 717.183 256.415 706.44zM436.766 729.9200000000001L334.859 626.47L646.809 313.173L750.184 416.259zM622.9839999999999 606.655V863.457C622.9839999999999 916.652 603.554 936.828 549.6679999999999 936.828H183.102C126.648 936.828 109.785 919.953 109.785 863.457V496.602C109.785 442.305 126.648 423.23 183.102 423.23H476.355L403.043 496.602H183.102V863.457H549.668V680.027zM622.9839999999999 606.655" />
    <glyph glyph-name="help"
      unicode="&#xEA1D;"
      horiz-adv-x="1000" d=" M583.33333 187.5L583.33333 312.5C583.33333 324.21875 574.21875 333.3333300000001 562.5 333.3333300000001L437.5 333.3333300000001C425.78125 333.3333300000001 416.66667 324.21875 416.66667 312.5L416.66667 187.5C416.66667 175.78125 425.78125 166.66667 437.5 166.66667L562.5 166.66667C574.21875 166.66667 583.33333 175.78125 583.33333 187.5zM750 625C750 744.14062 625 833.3333299999999 513.02083 833.3333299999999C406.9010400000001 833.3333299999999 327.4739600000001 787.76042 271.48437 694.66146C265.625 685.5468699999999 268.22917 673.8281199999999 276.6927100000001 667.31771L362.6302100000001 602.21354C365.88542 599.6093699999999 370.4427100000001 598.30729 375.0000000000001 598.30729C380.8593700000001 598.30729 387.3697900000001 600.91146 391.2760400000001 606.11979C421.8750000000001 645.18229 434.8958300000001 656.90104 447.2656200000001 666.0156199999999C458.33333 673.8281199999999 479.8177100000001 681.6406199999999 503.2552100000001 681.6406199999999C544.9218700000001 681.6406199999999 583.33333 654.94792 583.33333 626.3020799999999C583.33333 592.44792 565.75521 575.5208299999999 526.0416700000001 557.29167C479.8177100000001 536.4583299999999 416.6666700000001 482.4218699999999 416.6666700000001 419.27083L416.6666700000001 395.83333C416.66667 384.1145800000001 425.78125 375 437.5 375L562.5 375C574.21875 375 583.33333 384.1145800000001 583.33333 395.8333300000001L583.33333 395.8333300000001C583.33333 410.8072900000001 602.2135400000001 442.7083300000001 632.8125 460.28646C682.29167 488.28125 750 526.0416700000001 750 625zM1000 500C1000 223.9583299999999 776.0416700000001 0 500 0C223.95833 0 0 223.9583300000001 0 500C0 776.0416700000001 223.95833 1000 500 1000C776.0416700000001 1000 1000 776.0416700000001 1000 500z" />
    <glyph glyph-name="layout"
      unicode="&#xEA1E;"
      horiz-adv-x="1000" d=" M76.82 362.0410000000001H747.723V287.4980000000001H76.82C35.652 287.4980000000001 2.277 320.8730000000001 2.277 362.0410000000001V883.854H76.82zM581.86 612.885A68.954 68.954 0 0 1 541.98 599.838L447.31 701.5920000000001V792.908C481.83 804.666 503.74 838.6110000000001 500.235 874.908C499.215 923.873 459.013 962.916 410.036 962.498C360.942 962.943 320.356 924.338 318.349 875.279C315.403 838.783 337.692 804.971 372.392 793.2830000000001V701.5920000000001L275.11 600.2120000000001A81.98 81.98 0 0 1 231.13 613.2560000000001C192.8300000000001 613.2830000000001 158.876 588.6190000000001 147.052 552.19C135.232 515.7560000000001 148.232 475.8570000000001 179.251 453.385C210.267 430.916 252.2310000000001 430.995 283.165 453.58C314.0990000000001 476.1700000000001 326.9500000000001 516.115 314.993 552.5020000000001L407.056 649.412L499.118 552.5020000000001C487.489 516.5420000000001 500.345 477.182 530.962 455.018C561.579 432.8580000000001 602.985 432.9360000000001 633.517 455.2130000000001C664.047 477.494 676.7510000000001 516.9040000000001 664.985 552.8230000000001C653.22 588.7360000000001 619.657 612.9900000000001 581.86 612.8850000000001" />
    <glyph glyph-name="logo"
      unicode="&#xEA1F;"
      horiz-adv-x="1000" d=" M26.773229 897.25634C87.35808 897.25634 147.94293 897.25634 208.52778 897.25634C208.45398 773.35571 199.73542 649.64284 199.6617 525.7422C289.64613 649.9354000000001 381.08368 773.0631500000001 471.06811 897.25634C544.92521 897.25634 618.78225 897.25634 692.6393499999999 897.25634C590.9871199999999 759.70153 444.4714199999999 657.41965 363.6841 504.26755C441.42462 348.59159 588.00114 244.7246500000001 684.1767699999999 102.19202C612.3767999999999 102.19202 540.5768699999999 102.19202 468.7769 102.19202C398.67194 203.74465 351.04539 326.14756 249.06433 401.61451C209.9424 416.46075 208.97732 341.47412 202.82617 314.36226C197.0895 243.81641 200.65971 172.9125 199.66169 102.19202C141.44113 102.19202 83.220563 102.19202 25.000002 102.19202C25.006802 367.21489 26.766443 632.23343 26.773211 897.2563399999999zM451.01494 504.26755C553.87011 645.53829 692.82846 755.98561 795.68363 897.25634C855.45229 897.99866 915.23414 898.52264 975 897.25634C872.39299 760.26045 719.74793 666.2269699999999 632.32548 517.07025C624.5598 471.17353 678.2929399999999 428.7875 703.79468 390.48856C790.23925 291.32439 898.41701 211.77472 973.2268 102.41472C910.1919999999998 102.42772 847.1582199999999 101.97802 784.1234299999999 101.97802C683.17225 244.2487 552.07306 362.08857 451.01494 504.26755z" />
    <glyph glyph-name="miew"
      unicode="&#xEA20;"
      horiz-adv-x="1000" d=" M354.531 1000L473.594 880L515.156 921.563C620.16 872.648 691.473 771.8589999999999 702.656 656.563H749.531C733.105 851.012 570.297 1000.366 375.156 1000zM517.97 618.75A136.49399999999997 136.49399999999997 0 0 0 513.595 583.437A75.984 75.984 0 0 0 500.157 556.875A58.416999999999994 58.416999999999994 0 0 0 477.97 540.312A80.293 80.293 0 0 0 446.7200000000001 534.687H418.2800000000001V715H449.5300000000001A62.498000000000005 62.498000000000005 0 0 0 500.78 693.437A93.76 93.76 0 0 0 518.5930000000001 630.937zM530.157 718.75A104.01999999999998 104.01999999999998 0 0 1 494.532 742.813A117.53000000000002 117.53000000000002 0 0 1 448.906 750H375.156V500H447.031A126.896 126.896 0 0 1 494.219 508.438A102.808 102.808 0 0 1 530.469 531.25A105.25 105.25 0 0 1 553.594 568.438A142.735 142.735 0 0 1 561.719 617.5V630A142.735 142.735 0 0 1 553.594 679.063A109.069 109.069 0 0 1 530.1560000000001 718.75zM262.9700000000001 531.25C257.454 531.219 251.9700000000001 532.063 246.7200000000001 533.75A33.403 33.403 0 0 0 234.2200000000001 541.25A31.239999999999995 31.239999999999995 0 0 0 226.0950000000001 552.813A37.209 37.209 0 0 0 223.2820000000001 567.5H182.6570000000001A62.504 62.504 0 0 1 189.22 537.812A69.065 69.065 0 0 1 206.72 516.25A79.08 79.08 0 0 1 232.3450000000001 503.437A93.693 93.693 0 0 1 263.5950000000001 498.75A105.27000000000001 105.27000000000001 0 0 1 294.8450000000001 503.438A76.263 76.263 0 0 1 320.7820000000001 517.188A62.517 62.517 0 0 1 337.9700000000001 539.688A73.146 73.146 0 0 1 344.2200000000001 570.938A65.637 65.637 0 0 1 342.0320000000001 588.438A52.264 52.264 0 0 1 334.8450000000001 604.375A56.248999999999995 56.248999999999995 0 0 1 322.3450000000001 617.813A64.36 64.36 0 0 1 303.2820000000001 627.5A65.575 65.575 0 0 1 319.5320000000001 637.813A64.72 64.72 0 0 1 331.0950000000001 650.938A55.026 55.026 0 0 1 337.9700000000001 665.313A49.66799999999999 49.66799999999999 0 0 1 340.1570000000001 680.313A75.57599999999998 75.57599999999998 0 0 1 334.5320000000001 711.563A55.644 55.644 0 0 1 318.5950000000001 733.125A64.386 64.386 0 0 1 294.5320000000001 746.563A113.802 113.802 0 0 1 263.2820000000001 750.938A93.721 93.721 0 0 1 232.0320000000001 745.938A79.392 79.392 0 0 1 207.345 731.875A70.333 70.333 0 0 1 189.219 710A62.53499999999999 62.53499999999999 0 0 1 183.594 683.437H224.219A33.112 33.112 0 0 0 227.031 697.5A29.362000000000002 29.362000000000002 0 0 0 234.844 708.125A37.17 37.17 0 0 0 246.719 715A45.638 45.638 0 0 0 262.969 718.75A35.94 35.94 0 0 0 290.781 709.062A37.8 37.8 0 0 0 299.844 682.187A47.79 47.79 0 0 0 297.344 666.875A27.189999999999998 27.189999999999998 0 0 0 289.531 655.312A39.684 39.684 0 0 0 276.719 647.812A52.543 52.543 0 0 0 258.594 645H234.53V613.75H258.593A70.241 70.241 0 0 0 277.343 611.562A37.512 37.512 0 0 0 291.4050000000001 604.375A36.923 36.923 0 0 0 300.468 591.875A44.375 44.375 0 0 0 303.593 574.062A37.488 37.488 0 0 0 292.656 545A40.001 40.001 0 0 0 262.969 531.25zM235.156 327.5C130.242 376.9880000000001 59.293 478.242 48.594 593.75H1.719C17.96 399.535 180.266 250.1330000000001 375.156 250H395.781L276.7200000000001 370zM235.156 327.5" />
    <glyph glyph-name="new"
      unicode="&#xEA21;"
      horiz-adv-x="1000" d=" M825.5 828.4375C778.24434 828.4375 742.03614 818.64928 718.78125 796C695.44002 773.26661 685.3125 737.1345200000001 685.3125 689.78125C685.3125 637.2178799999999 703.84739 564.51027 740.21875 469.46875C751.00165 441.24749 757.23215 425.4175800000001 761.90625 417.21875L761.99995 417.0625L762.09365 416.90625C774.70336 396.20286 794.00043 383.51029 815.9999 383.5625C816.0104 383.56252 816.0206000000001 383.56247 816.0312 383.5625C840.41236 383.5715 861.48787 394.42931 873.81245 414L873.81245 414.0625L873.84375 414.0938C879.9121 423.90291 885.4908 440.44238 895.3125 470.06255L895.3125 470.09385C914.15095 527.5356899999999 928.3144 573.82394 937.8125 609.15635C947.3106 644.48876 952.34375 668.05887 952.34375 683.8751C952.34375 729.6361099999999 942.46528 765.9089299999999 920.6875 791.0626C898.90972 816.21627 865.94925 828.4376 825.5 828.4376zM825.5 802.75C861.00146 802.75 885.04516 793.03418 901.28125 774.28125C917.51734 755.52832 926.65625 725.9272 926.65625 683.875C926.65625 674.42568 922.29701 650.4281100000001 913 615.84375C903.70695 581.2741 889.67728 535.2999 870.9375 478.15625C870.9295 478.13195 870.9142 478.11805 870.9062 478.09375C861.25533 448.99703 853.52391 430.0880600000001 852.06245 427.6875C843.95404 414.81175 833.7146 409.25 816 409.25L815.9687 409.25C802.9485500000001 409.2119 793.6164 414.6459200000001 784.2187 429.9375C784.2137 429.9455000000001 784.1924 430.0226 784.1874 430.0312C782.56431 432.90464 774.8689800000001 450.75066 764.21865 478.62495L764.21865 478.65625C728.38805 572.28473 710.96865 643.43922 710.96865 689.78125C710.96865 733.42506 720.58971 761.9152799999999 736.6874 777.59375C752.87153 793.35631 781.86128 802.75 825.5 802.75zM820 363.125C794.12841 363.125 770.57829 353.48545 751.875 335.1875L751.8437 335.1562C733.20696 316.8678 723.2187 293.37396 723.2187 267.4062C723.2187 241.4401000000001 733.12771 217.91966 751.9062 199.6562L751.9062 199.6249C770.60506 181.3972 794.13616 171.7499 819.99995 171.7499C845.84453 171.7499 869.4147 181.32826 888.12495 199.6249L888.12495 199.6562C906.76607 217.8989300000001 916.81245 241.40176 916.81245 267.4062C916.81245 293.32962 906.77804 316.8244200000001 888.1562 335.1562L888.1562 335.1875L888.1249 335.1875C869.43315 353.4164 845.89083 363.125 820 363.125zM820 337.46875C839.79834 337.46875 855.68292 330.94521 870.15625 316.84375C870.16705 316.83325 870.17665 316.82305 870.18755 316.81245C884.51184 302.6976100000001 891.12505 287.06926 891.12505 267.4062C891.12505 247.61168 884.50427 232.0044800000001 870.18755 217.99995C855.72663 203.85244 839.85165 197.4062 820.00005 197.4062C800.1677 197.4062 784.28485 203.8861000000001 769.81255 217.99995L769.78125 218.03125C755.39664 232.0150700000001 748.875 247.57335 748.875 267.40625C748.875 287.1276000000001 755.50315 302.75688 769.8125 316.8125C769.8233 316.823 769.833 316.8332000000001 769.8438 316.8438C784.30572 330.9788200000001 800.18246 337.4688 820.00005 337.4688zM75.84375 975C59.01924 975 47.65625 959.678909 47.65625 943.71875L47.65625 57.90625C47.65625 41.97705 59.056077 26.64459 75.8125 26.625L75.84375 26.625C75.87495 26.62491 256.79387 26.08073 438.25 25.625C528.98589 25.39712 619.8377800000001 25.20209 688.28125 25.09375C722.50298 25.03955 751.112 24.99505 771.3125 25.00005C781.41275 25.0020499999999 789.4121 25.01035 794.96875 25.03135C797.74707 25.04185 799.92442 25.0464499999999 801.46875 25.06265C802.24092 25.07065 802.84115 25.0826499999999 803.34375 25.09395C803.59505 25.0999499999999 803.80459 25.11465 804.0625 25.1252499999999C804.31143 25.13545 804.0925 25.0125999999999 805.78125 25.2814999999999C805.80455 25.2855 805.82045 25.3090999999999 805.84375 25.3127999999999C827.12495 28.6958299999999 839.2412 48.3396499999999 839.3125 66.9690499999999L839.3125 67.0003499999999L839.3125 67.0316499999999C839.3125 67.8979499999999 839.48368 150.6348699999999 839.53125 173.6566499999999C833.20039 172.39158 826.67931 171.75 820 171.75C817.93228 171.75 815.88037 171.8147 813.84375 171.9375C813.79495 149.51499 813.62503 68.38923 813.625 67.09375L813.625 67.03125C813.5722 59.0707200000001 809.35442 52.1604 802.21875 50.78125C801.91239 50.77625 801.65209 50.75495 801.1875 50.74995C799.75181 50.73505 797.62374 50.72915 794.875 50.71865C789.37752 50.69785 781.39729 50.6899500000001 771.3125 50.68735C751.14292 50.68235 722.52633 50.6953500000001 688.3125 50.74985C619.8848399999999 50.85816 529.04439 51.08448 438.3125 51.31235C256.84872 51.7683900000001 75.875 52.28125 75.875 52.28125L75.84375 52.28125C75.56863 52.28125 73.34375 53.40725 73.34375 57.90625L73.34375 943.71875C73.34375 948.094281 75.721852 949.3125 75.84375 949.3125L813.03125 949.3125C813.1528 949.3125 815.51782 948.095472 815.53125 943.75C815.53129 943.73771 815.53125 943.73109 815.53125 943.71875C815.53123 943.71045 815.338 854.80706 815.28125 828.28125C818.63206 828.38807 822.02925 828.4375 825.5 828.4375C830.78697 828.4375 835.94591 828.23167 840.96875 827.8125C841.02915 854.52149 841.21875 943.6875 841.21875 943.6875L841.21875 943.71875C841.21875 959.678509 829.85576 975 813.03125 975zM840 387.40625C832.5614 384.87825 824.49412 383.56562 816.03125 383.5625C816.02065 383.56247 816.01045 383.56252 815.99995 383.5625C815.4374300000001 383.5615 814.87136 383.5785 814.31245 383.5938C814.29165 374.19272 814.30135 372.05368 814.28115 362.93755C816.17624 363.04352 818.07816 363.12505 819.9999 363.12505C826.8282 363.12505 833.4817 362.4225800000001 839.9374 361.0938C839.9622 372.70942 839.974 375.33281 839.9999 387.4063zM207.36635 191.1516400000001C207.36635 178.1080400000001 196.78769 167.58073 183.79544 167.58073L159.50559 167.58073C146.51335 167.58073 135.93468 178.15939 135.93468 191.1516400000001L135.93468 218.3172400000001C135.93468 231.3608400000001 146.51335 241.8881600000001 159.50559 241.8881600000001L183.79544 241.8881600000001C196.78769 241.8881600000001 207.36635 231.3608400000001 207.36635 218.3172400000001zM207.36635 387.2164400000001C207.36635 374.22419 196.78769 363.6968800000001 183.79544 363.6968800000001L159.50559 363.6968800000001C146.51335 363.6968800000001 135.93468 374.2755400000001 135.93468 387.2164400000001L135.93468 414.4847500000001C135.93468 427.4769900000001 146.51335 438.0043100000001 159.50559 438.0043100000001L183.79544 438.0043100000001C196.78769 438.0043100000001 207.36635 427.47699 207.36635 414.4847500000001zM207.36635 583.4353000000001C207.36635 570.4430500000001 196.78769 559.91574 183.79544 559.91574L159.50559 559.91574C146.51335 559.91574 135.93468 570.4944 135.93468 583.4353000000001L135.93468 610.70361C135.93468 623.6958500000001 146.51335 634.27452 159.50559 634.27452L183.79544 634.27452C196.78769 634.27452 207.36635 623.6958500000001 207.36635 610.70361zM207.36635 779.6028C207.36635 766.66191 196.78769 756.08324 183.79544 756.08324L159.50559 756.08324C146.51335 756.08324 135.93468 766.66191 135.93468 779.6028000000001L135.93468 806.87111C135.93468 819.8633600000001 146.51335 830.39067 159.50559 830.39067L183.79544 830.39067C196.78769 830.39067 207.36635 819.8120000000001 207.36635 806.87111z" />
    <glyph glyph-name="open"
      unicode="&#xEA22;"
      horiz-adv-x="1000" d=" M244.59375 606.40625C238.15337 606.44705 232.20924 604.8433 226.9375 602C221.66576 599.1567 216.65685 595.0724700000001 214.03125 588.15625L31.53125 104.6875C28.895632 97.7449 31.219974 88.4442 36.375 83.625C41.530026 78.8058 47.893077 77.19708 54.34375 77.15625L54.375 77.15625L760.53125 73.8125C760.56295 73.8121 760.59335 73.81282 760.62495 73.8125C767.07416 73.7469 773.0108 75.35654 778.2812 78.1875C783.5533 81.01937 788.62247 85.0558 791.24995 92.0625C791.26205 92.0947 791.26925 92.124 791.28125 92.1562L973.6875 575.59375C976.31549 582.5803599999999 973.87936 591.97889 968.65625 596.75C963.45003 601.50568 957.11672 603.05251 950.6875 603.0625L950.625 603.0625L244.59375 606.40625zM244.4375 580.71875L244.4688 580.71875L946.93755 577.4375L767.2188 101.125L767.2188 101.0937L767.1875 101.0624C767.2123 101.1293000000001 767.1965 101.0674 767.2188 101.1249C767.69439 102.37215 767.53622 101.5536100000001 766.1563 100.8124C764.71287 100.03707 762.41993 99.44857 760.8438 99.46865L760.8125 99.46865L760.75 99.46865L58.28125 102.78115L238.03125 579.0624C237.51101 577.69201 237.70837 578.61084 239.125 579.3749C240.54163 580.13896 242.76454 580.72924 244.4375 580.71865zM289.90625 926.1875C280.7252 926.15077 271.50111 926.020594 262.46875 925.84375C214.29615 924.900583 171.5625 922.34375 171.5625 922.34375L170.34375 922.28125L169.1875 921.96875C148.66536 916.805948 136.68269 900.499721 133.4375 884.59375L106.8125 796.71875L53.4375 796.71875C38.609785 796.71875 25 785.42543 25 769.90625L25 100.5625C25 85.09965 38.59565 73.8125 53.4375 73.8125L54.5625 73.8125L55.65625 74L73.15625 77.0625L54.375 77.1562L54.34375 77.1562C47.893077 77.1971 41.530026 78.8058 36.375 83.625C31.219974 88.4442 28.895632 97.7449 31.53125 104.6875L50.6875 155.4375L50.6875 769.90625C50.6875 769.79215 51.114237 771.03125 53.4375 771.03125L116.3125 771.03125L125.8125 771.03125L128.59375 780.15625L158 877.15625L158.25 877.9375L158.375 878.75C159.69862 886.65865 163.82953 893.73531 174.53125 896.78125C176.69022 896.90955 216.67281 899.28108 262.96875 900.1875C274.85802 900.4202789999999 287.06435 900.564131 299 900.53125C310.93565 900.49837 322.60054 900.297806 333.375 899.875C354.33375 899.05255 372.42307 897.05114 380.75 894.71875C379.95713 894.83184 383.12797 893.26739 386.25 890.4375C389.86974 887.15647 394.56243 882.36883 399.78125 876.65625C410.2189 865.2311 422.79512 850.16264 434.8125 835.25C458.84727 805.42472 480.71875 776.1875 480.71875 776.1875L484.5625 771.03125L491 771.03125L801.96875 771.03125C804.43152 771.03125 804.8125 769.89525 804.8125 769.90625L804.8125 603.75L830.46875 603.625L830.46875 769.90625C830.46875 785.42503 816.75966 796.71875 801.96875 796.71875L497.375 796.71875C492.42128 803.30116 475.8239 825.27023 454.8125 851.34375C442.61183 866.48384 429.83612 881.83377 418.75 893.96875C413.20694 900.036239 408.11816 905.282733 403.5 909.46875C398.88184 913.654767 395.89408 916.971371 388.90625 919.09375L388.87495 919.09375C375.4762800000001 923.147128 356.74493 924.653419 334.37495 925.53125C323.18996 925.970165 311.23433 926.154187 299.06245 926.1875C296.01948 926.1958 292.96655 926.19974 289.9062 926.1875z" />
    <glyph glyph-name="paste"
      unicode="&#xEA23;"
      horiz-adv-x="1000" d=" M361.28125 975C330.464 975 305.25 949.73116 305.25 918.96875C305.25 888.1879 330.50039 862.9375 361.28125 862.9375L650.21875 862.9375C681.0360000000001 862.9375 706.3125 888.1879 706.3125 918.96875C706.3125 949.749605 681.036 975 650.21875 975zM361.28125 949.3125L650.21875 949.3125C667.15824 949.3125 680.625 935.841947 680.625 918.96875C680.625 902.095553 667.15824 888.625 650.21875 888.625L361.28125 888.625C344.40805 888.625 330.9375 902.095553 330.9375 918.96875C330.9375 935.860392 344.34174 949.3125 361.28125 949.3125zM295.08244 295.46757L732.3391799999999 295.46757L732.3391799999999 274.00271L295.08244 274.00271zM295.08244 409.72433L732.3391799999999 409.72433L732.3391799999999 388.2081100000001L295.08244 388.2081100000001zM295.08244 524.0837799999999L732.3391799999999 524.0837799999999L732.3391799999999 502.51622L295.08244 502.51622zM295.08244 638.39189L732.3391799999999 638.39189L732.3391799999999 616.82432L295.08244 616.82432zM295.08244 752.69999L732.3391799999999 752.69999L732.3391799999999 731.18378L295.08244 731.18378zM179.59375 932.21875C163.76632 932.21875 153.1875 917.88709 153.1875 903.0625L153.1875 118.15625C153.1875 103.34995 163.76631 89.03125 179.59375 89.03125L722.15625 89.03125L727.53125 89.03125L731.28125 92.84375L852.28125 214.75L856 218.5L856 223.78125L856 903.0625C856 917.838463 845.41512 932.21875 829.59375 932.21875L704.6875 932.21875C705.73446 927.962442 706.3125 923.532478 706.3125 918.96875C706.3125 914.706327 705.79198 910.560458 704.875 906.5625L829.375 906.5625C829.11695 906.47905 830.3125 905.949749 830.3125 903.0625L830.3125 229.0625L716.84375 114.71875L179.59375 114.71875C180.52931 114.71875 178.875 114.98959 178.875 118.15625L178.875 903.0625C178.875 906.313586 180.5293 906.5625 179.59375 906.5625L306.6875 906.5625C305.77147 910.560458 305.25 914.706327 305.25 918.96875C305.25 923.529743 305.83038 927.963735 306.875 932.21875zM79.0625 948.03125C62.26114 948.03125 48.6875 933.914324 48.6875 917.21875L48.6875 55.8125C48.6875 39.10055 62.306664 25 79.0625 25L920.84375 25C937.65864 25 951.3125 39.07259 951.3125 55.8125L951.3125 917.21875C951.3125 934.018936 937.59959 948.03125 920.84375 948.03125L698.09375 948.03125C702.74109 940.451745 705.64897 931.717653 706.21875 922.375L920.84375 922.375C923.39601 922.375 925.625 920.342888 925.625 917.21875L925.625 55.8125C925.625 52.73079 923.43968 50.6875 920.84375 50.6875L79.0625 50.6875C76.510228 50.6875 74.375 52.60013 74.375 55.8125L74.375 917.21875C74.375 920.344798 76.555752 922.375 79.0625 922.375L305.34375 922.375C305.91217 931.713031 308.8299 940.451481 313.46875 948.03125z" />
    <glyph glyph-name="period-table"
      unicode="&#xEA24;"
      horiz-adv-x="1000" d=" M939.75697 329.25091L864.58573 329.25091L864.58573 82.13326C864.58573 67.92153 861.41021 57.3017699999999 855.05918 50.48222C848.7081499999999 43.55855 840.5350999999999 40.12274 830.4359099999999 40.12274C820.2326099999999 40.12274 811.9554499999999 43.6106100000001 805.5002999999999 50.58633C799.0451499999999 57.56206 795.8175799999999 68.0776999999999 795.8175799999999 82.13326L795.8175799999999 329.25091L720.6463399999999 329.25091C708.8813099999999 329.25091 700.1356199999999 331.8538 694.4092799999999 337.0075C688.7349999999999 342.21327 685.8197699999998 349.0328199999999 685.8197699999998 357.57027C685.8197699999998 366.3680199999999 688.8391099999999 373.3437399999999 694.7736799999998 378.44539C700.7082599999998 383.5470399999999 709.3498299999998 386.04581 720.6463399999998 386.04581L939.7049099999998 386.04581C951.6261099999998 386.04581 960.4759099999998 383.44292 966.3063699999998 378.1850999999999C972.0847699999998 372.9272799999999 974.9999999999998 366.05567 974.9999999999998 357.57027C974.9999999999998 349.0848799999999 972.0327099999998 342.21327 966.2022599999998 337.0075C960.3717999999998 331.8538 951.5219999999998 329.25091 939.7569699999998 329.25091zM533.91556 178.43991L470.76963 178.43991L470.76963 82.13326C470.76963 68.33799 467.49 57.8743999999999 461.03485 50.7425C454.52764 43.61061 446.30254 40.0706899999999 436.41158 40.0706899999999C426.0521100000001 40.0706899999999 417.72289 43.61061 411.37185 50.6383899999998C405.02082 57.7182299999998 401.84531 68.0256399999998 401.84531 81.6647499999998L401.84531 343.8791099999999C401.84531 359.0278899999999 405.33317 369.8558799999999 412.30889 376.3630799999999C419.23256 382.8182299999999 430.32084 386.0978599999999 445.46961 386.0978599999999L533.91556 386.0978599999999C560.04849 386.0978599999999 580.1948 384.1196699999998 594.19831 380.1112399999999C608.14976 376.2589699999999 620.17508 369.8038199999999 630.27426 360.8499099999998C640.4255 351.8439299999998 648.13003 340.8597699999998 653.3358000000001 327.8974199999998C658.6456800000001 314.8829999999998 661.2485600000001 300.2547999999998 661.2485600000001 284.0128199999998C661.2485600000001 249.3424299999998 650.5767400000001 223.1053699999998 629.2331100000001 205.1975399999998C607.9415300000002 187.3938299999998 576.1343100000001 178.4399099999998 533.9155600000001 178.4399099999998zM517.20505 334.35256L470.76963 334.35256L470.76963 230.39344L517.20505 230.39344C533.44704 230.39344 547.03408 232.1113499999999 557.91413 235.54715C568.84624 238.9309 577.1234 244.50106 582.84974 252.25765C588.52403 259.96219 591.43926 270.11343 591.43926 282.65932C591.43926 297.65192 587.01436 309.83341 578.1645599999999 319.3079C568.37772 329.3550300000001 548.0231799999999 334.3525600000001 517.2050499999999 334.3525600000001zM520.0625 959.9375C520.0625 806.03125 520.0625 652.125 520.0625 498.21875C607.9375 498.21875 695.8125 498.21875 783.6875 498.21875C783.6875 652.125 783.6875 806.03125 783.6875 959.9375C695.8125 959.9375 607.9375 959.9375 520.0625 959.9375zM546.09375 933.90625C616.61458 933.90625 687.1354200000001 933.90625 757.65625 933.90625C757.65625 797.3541700000001 757.65625 660.8020799999999 757.65625 524.25C687.13542 524.25 616.6145799999999 524.25 546.09375 524.25C546.09375 660.8020799999999 546.09375 797.3541700000001 546.09375 933.90625zM25 959.9375C25 878.65625 25 797.375 25 716.09375C277.89583 716.09375 530.7916700000001 716.09375 783.6875 716.09375C783.6875 797.375 783.6875 878.65625 783.6875 959.9375C530.7916700000001 959.9375 277.89583 959.9375 25 959.9375zM51.03125 933.90625C286.57292 933.90625 522.1145799999999 933.90625 757.65625 933.90625C757.65625 869.9791700000001 757.65625 806.0520799999999 757.65625 742.125C522.1145799999999 742.125 286.57292 742.125 51.03125 742.125C51.03125 806.0520799999999 51.03125 869.9791700000001 51.03125 933.90625zM25 959.9375C25 707.0208299999999 25 454.1041700000001 25 201.1875C112.875 201.1875 200.75 201.1875 288.625 201.1875C288.625 454.1041700000001 288.625 707.0208299999999 288.625 959.9375C200.75 959.9375 112.875 959.9375 25 959.9375zM51.03125 933.90625C121.55208 933.90625 192.07292 933.90625 262.59375 933.90625C262.59375 698.34375 262.59375 462.78125 262.59375 227.21875C192.07292 227.21875 121.55208 227.21875 51.03125 227.21875C51.03125 462.78125 51.03125 698.34375 51.03125 933.90625zM25 959.9375C25 806.03125 25 652.125 25 498.21875C277.89583 498.21875 530.7916700000001 498.21875 783.6875 498.21875C783.6875 652.125 783.6875 806.03125 783.6875 959.9375C530.7916700000001 959.9375 277.89583 959.9375 25 959.9375zM51.03125 933.90625C286.57292 933.90625 522.1145799999999 933.90625 757.65625 933.90625C757.65625 797.3541700000001 757.65625 660.8020799999999 757.65625 524.25C522.1145799999999 524.25 286.57292 524.25 51.03125 524.25C51.03125 660.8020799999999 51.03125 797.3541700000001 51.03125 933.90625z" />
    <glyph glyph-name="reaction-arrow"
      unicode="&#xEA25;"
      horiz-adv-x="1000" d=" M750 625L375 250L308.906 316.0940000000001L570.47 578.125H0V671.875H570.469L308.906 933.906L375 1000zM750 625" />
    <glyph glyph-name="reaction-automap"
      unicode="&#xEA26;"
      horiz-adv-x="1000" d=" M153.324 1000V693.352H79.434V926.109H5.543V1000zM596.6759999999999 556.648V486.453H670.5659999999999V250H744.4569999999999V556.648zM496.9219999999999 667.488L423.032 597.6600000000001L279.308 741.3800000000001L227.214 689.2860000000001L369.4559999999999 547.0440000000001L301.1079999999999 482.7590000000001H496.9209999999999zM496.9219999999999 667.488" />
    <glyph glyph-name="reaction-map"
      unicode="&#xEA27;"
      horiz-adv-x="1000" d=" M333.296 250V883.3340000000001H166.481V1000H458.407V250zM41.37 416.665H166.481V500H41.37zM583.519 416.665H708.63V500H583.519zM583.519 416.665" />
    <glyph glyph-name="reaction-plus"
      unicode="&#xEA28;"
      horiz-adv-x="1000" d=" M450 700H750V550H450V250H300V550H0V700H300V1000H450zM450 700" />
    <glyph glyph-name="reaction-unmap"
      unicode="&#xEA29;"
      horiz-adv-x="1000" d=" M96.84 955.829L706.124 346.669L653.1610000000001 293.754L458.407 488.752V250.004H333.2970000000001V613.751L43.876 902.914zM458.407 664.1659999999999V999.996H166.484V958.33L249.89 883.33H333.2970000000001V791.663zM41.374 416.668H166.484V500H41.374zM708.626 416.668V500H625.22zM708.626 416.668" />
    <glyph glyph-name="recognize"
      unicode="&#xEA2A;"
      horiz-adv-x="1000" d=" M519.29 525.758L641.601 403.4400000000001L596.921 358.0300000000001L474.6080000000001 481.0770000000001zM706.054 403.4400000000001C706.054 410.7650000000001 703.612 416.87 698.7289999999999 421.7530000000001L160.398 960.082C155.516 964.965 149.414 967.406 142.09 967.406S128.418 964.965 123.047 960.082L40.28 877.3199999999999C34.913 872.438 32.226 866.09 32.226 858.277C32.226 850.4649999999999 34.913 844.3589999999999 40.28 839.9649999999999L578.612 301.637C583.495 296.266 589.601 293.578 596.9209999999999 293.578C604.2489999999999 293.578 610.593 296.266 615.968 301.637L698.7289999999999 384.3979999999999C703.612 389.281 706.054 395.628 706.054 403.4409999999999zM140.624 323.6080000000001L181.64 336.0580000000001L140.624 348.5110000000001L128.171 389.5260000000001L115.721 348.5110000000001L74.706 336.0580000000001L115.722 323.6080000000001L128.171 282.5930000000001zM287.1080000000001 391.7220000000001L369.1400000000001 416.6240000000002L287.1080000000001 441.5260000000002L262.2060000000001 523.5580000000002L237.3040000000001 441.5260000000002L155.2720000000001 416.6240000000002L237.3040000000001 391.7220000000001L262.2060000000001 309.6900000000001zM676.7570000000001 591.6750000000001L717.772 604.124L676.7570000000001 616.577L664.3040000000001 657.5930000000001L651.854 616.577L610.839 604.124L651.854 591.6740000000001L664.3040000000001 550.6590000000001zM408.69 323.6090000000001L449.706 336.0590000000001L408.69 348.5120000000001L396.241 389.5270000000001L383.788 348.5120000000001L342.772 336.0590000000001L383.788 323.6090000000001L396.241 282.5940000000001zM408.69 323.6090000000001" />
    <glyph glyph-name="redo"
      unicode="&#xEA2B;"
      horiz-adv-x="1000" d=" M516.53513 816.51753C474.02387 819.7618 431.64442 815.85319 389.76148 803.6796899999999C223.06495 755.22849 77.770056 575.74666 27.092583 201.90606C26.838653 200.03291 25.73694 198.97477 25.487841 197.09186L15.859471 131.29795L49.558791 189.06822C163.05379 389.7475500000001 270.47102 477.97142 360.87636 497.17632C451.28168 516.38122 527.84908 469.2464299999999 583.93377 386.44998C583.78309 385.40611 583.07766 382.72798 580.72432 378.42633C576.0177100000001 369.8230700000001 567.3116100000001 356.84782 555.0486500000001 341.5175400000001C530.52273 310.8569300000001 493.3995500000001 269.7377600000001 457.1601400000001 219.55809L442.7175600000001 198.69661L468.3932300000001 198.69661C601.08437 198.69661 832.4746700000001 203.32033 962.6499800000003 205.1155299999999L975.4878200000002 206.72025L975.4878200000002 219.55809C975.4878200000002 219.55809 972.2783600000002 592.94135 972.2783600000002 725.0479399999999L972.2783600000002 755.5378L949.8121400000002 733.07159C919.9229400000002 703.18237 881.0147900000002 668.28702 848.7141800000002 636.78781C760.60861 736.9020399999999 639.85551 807.10625 516.53513 816.51753zM514.9304099999999 790.84186C634.3633799999999 781.45693 754.16084 712.21241 839.0858 611.11213L847.10944 599.87902L856.7378299999999 611.11213C883.2739999999999 637.60716 916.71964 667.63815 946.60269 696.1628C946.9469999999998 551.1935199999999 949.65398 247.76487 949.8121399999998 230.7911999999999C824.7750099999998 228.95846 624.8061099999999 224.8800899999999 494.0689099999999 224.3722799999999C523.29406 262.8420799999999 553.4522799999999 299.40117 574.3054 325.4702399999999C586.85799 341.1625999999999 596.86626 354.0283299999999 603.19053 365.5884899999999C606.3526999999999 371.3685899999998 608.7246799999999 377.1118399999999 609.6094499999999 383.2405099999999C610.4057599999999 388.7563199999999 608.8411299999999 395.7259199999999 604.79527 400.8925399999999C604.55874 401.2416799999999 603.42793 400.5444299999998 603.19053 400.8925399999999C543.49336 488.43663 457.55123 544.4114 356.06216 522.852C265.30492 503.57238 166.02628 412.5920700000001 64.001354 251.6526800000001C120.47072 579.17041 252.00082 737.23576 397.78513 779.60875C436.54307 790.87393 475.11939 793.97015 514.9304099999999 790.84186z" />
    <glyph glyph-name="rgroup-attpoints"
      unicode="&#xEA2C;"
      horiz-adv-x="1000" d=" M10.941 300.117L363.883 653.06H185.648V723.65H484.941V424.708H414.351V603.6479999999999L61.412 250.707zM561.5310000000001 911.766L463.7660000000001 897.6479999999999L534.3520000000001 830.5899999999999L516.7070000000001 731.766L604.9410000000001 777.6479999999999L693.1760000000002 731.766L675.5310000000002 830.5899999999999L746.1170000000002 897.648L647.2930000000002 911.766L604.941 1000zM561.5310000000001 911.766" />
    <glyph glyph-name="rgroup-fragment"
      unicode="&#xEA2D;"
      horiz-adv-x="1000" d=" M340.9100000000001 932H272.7270000000001V863.777H340.9100000000001zM136.363 522.668V454.4450000000001H204.547V522.6680000000001zM136.363 659.109V590.8910000000001H204.547V659.109zM136.363 386.223C138.84 349.617 167.965 320.477 204.547 318V386.223zM204.547 932C167.965 929.523 138.84 900.383 136.363 863.777H204.547zM613.637 386.223H545.453V318H613.637zM613.637 932H545.453V863.777H613.637zM306.817 386.223H238.637V318H306.817zM477.2729999999999 386.223H409.09V318H477.273zM204.547 795.5550000000001H136.363V727.332H204.547zM681.817 932V863.777H750C747.527 900.383 718.398 929.523 681.816 932zM750 795.5550000000001H681.816V727.332H750zM477.273 932H409.09V863.777H477.273zM750 386.223H681.816V318C718.398 320.477 747.527 349.617 750 386.223zM750 659.1089999999999H681.816V590.891H750zM750 522.668H681.816V454.4450000000001H750zM647.727 454.4450000000001H579.547V727.332H511.3630000000001V795.5550000000001H647.7270000000001zM488.523 454.4450000000001L417.953 578.9490000000001C453.539 594.0820000000001 475.683 630.0590000000001 473.183 668.6640000000001A123.19100000000002 123.19100000000002 0 0 1 438.488 758.172A123.035 123.035 0 0 1 350.113 795.5550000000001H238.637L242.047 454.4450000000001H306.817V566.672H350.4530000000001L409.0900000000001 454.4450000000001zM306.816 727.332H344.316C383.184 727.332 404.316 714.711 404.316 678.5550000000001C404.316 642.398 383.184 623.293 344.316 623.293H306.816zM136.363 616.812L25.91 506.294L0 532.219L84.203 616.813L0 701.4100000000001L25.91 727.3320000000001zM136.363 616.812" />
    <glyph glyph-name="rgroup-label"
      unicode="&#xEA2E;"
      horiz-adv-x="1000" d=" M750 427.5H671.05V743.5H592.105V822.5H750zM473.684 427.5L405.394 558.246H355.262V427.5H279.472L276.316 822.5H406.184A142.468 142.468 0 0 0 508.078 779.625A142.625 142.625 0 0 0 548.684 676.746C551.582 632.039 525.938 590.383 484.7379999999999 572.8589999999999L565.656 427.5zM355.262 625H398.684C443.684 625 468.1559999999999 646.723 468.1559999999999 688.988C468.1559999999999 731.254 443.684 743.5 398.684 743.5H355.262zM30 743.5L0 714.27L97.5 616.309L0 518.746L30 488.723L157.895 616.309zM30 743.5" />
    <glyph glyph-name="save"
      unicode="&#xEA2F;"
      horiz-adv-x="1000" d=" M295.39054 246.47839C283.09318 246.47839 272.47732 244.9170900000001 263.29594 241.66419C258.70525 240.03774 254.24682 236.80954 250.45811 233.64055C246.66941 230.47155 242.43446 226.06206 242.43446 219.1979799999999L242.43446 52.3060999999999C242.43446 45.4612699999999 246.66279 39.4378599999999 250.45811 36.2587899999999C254.25344 33.0797399999999 258.70247 31.4632499999999 263.29594 29.8398699999999C272.48286 26.59314 283.10309 25.0256999999999 295.39054 25.0256999999999L765.57635 25.0256999999999C777.8509200000001 25.0256999999999 788.49626 26.58647 797.6709400000001 29.8398699999999C802.2583000000001 31.4665899999999 806.72171 33.0898999999999 810.5087800000001 36.2587899999999C814.2958300000001 39.4276899999999 818.5324200000001 45.4420099999999 818.5324200000001 52.3060999999999L818.5324200000001 219.1979799999999C818.5324200000001 226.0479899999999 814.2925500000001 230.4681199999999 810.5087800000001 233.64055C806.7250000000001 236.8129799999999 802.2572300000002 240.03641 797.6709400000001 241.66419C788.49841 244.91977 777.8737100000001 246.47839 765.57635 246.47839zM295.39054 220.8027099999999L765.57635 220.8027099999999C775.41141 220.8027099999999 784.3515900000001 219.47282 789.64728 217.59326C791.2767200000001 217.01494 792.0593200000001 216.4417599999999 792.85675 215.98852L792.85675 55.51555C792.0553600000001 55.0607299999999 791.2800100000001 54.4897999999999 789.64728 53.9108199999999C784.34091 52.0291099999999 775.38286 50.70137 765.57635 50.70137L295.3905400000001 50.70137C285.5455700000001 50.70137 276.6266100000001 52.03526 271.3196100000001 53.9108199999999C269.6866800000001 54.4879099999999 268.9082900000001 55.06305 268.1101400000001 55.51555L268.1101400000001 215.98852C268.9121400000001 216.4434 269.6849900000001 217.01411 271.3196100000001 217.59326C276.6321600000001 219.47548 285.5554800000001 220.8027099999999 295.3905400000001 220.8027099999999zM202.31622 975.02567C186.64056 975.02567 173.6848 972.74945 162.19799 967.00201C150.71117 961.254586 139.73176 950.434289 139.73176 936.512158L139.73176 471.14054C139.73176 457.23409 149.10992 446.41657 160.59324 440.65067C172.07659 434.8848000000001 186.61021 432.62703 202.31622 432.62703L797.6709400000001 432.62703C813.3545200000001 432.62703 827.9078000000001 434.8874600000001 839.3939100000001 440.65067C850.8800300000001 446.4138900000001 860.2553900000001 457.21843 860.2553900000001 471.14054L860.2553900000001 936.512158C860.2553900000001 950.434026 849.2713400000001 961.248834 837.7891800000001 967.00201C826.3070200000001 972.755185 813.3545200000001 975.02567 797.6709400000001 975.02567zM202.31622 949.349995L797.67094 949.349995C809.87115 949.349995 819.74432 946.344109 826.55607 942.931077C833.36784 939.518028 834.57971 936.55784 834.57971 936.512158L834.57971 471.14054C834.57971 471.04374 833.36388 468.13747 826.55607 464.72162C819.74828 461.30578 809.87115 458.3027000000001 797.67094 458.3027000000001L202.3162199999999 458.3027000000001C190.08711 458.3027000000001 180.2288299999999 461.3084600000001 173.4310799999999 464.72162C166.6333499999999 468.1347900000001 165.4074399999999 471.02808 165.4074399999999 471.14054L165.4074399999999 936.512158C165.4074399999999 936.608948 166.6239799999999 939.525126 173.4310799999999 942.931077C180.2382199999999 946.33701 190.1081099999999 949.349995 202.3162199999999 949.349995zM104.4375 975.03125C60.373652 975.03125 25.78125 938.845095 25.78125 894.78125L25.78125 105.25C25.78125 61.18617 60.373652 25.03125 104.4375 25.03125L295.375 25.03125C283.08755 25.03125 272.46817 26.59702 263.28125 29.84375C258.68778 31.46713 254.26408 33.07095 250.46875 36.25C246.9756 39.17597 243.09248 44.51981 242.5 50.6875L104.4375 50.6875C74.247275 50.6875 51.46875 75.0597800000001 51.46875 105.25L51.46875 894.78125C51.46875 924.971455 74.247275 949.34375 104.4375 949.34375L143.03125 949.34375C147.13842 957.086885 154.53907 963.173112 162.1875 967C173.67431 972.74744 186.63684 975.03125 202.3125 975.03125zM797.65625 975.03125C813.33983 975.03125 826.29909 972.753175 837.78125 967C845.42506 963.170044 852.8288 957.083407 856.9375 949.34375L895.5625 949.34375C925.75272 949.34375 950.125 924.959624 950.125 894.78125L950.125 105.25C950.125 75.07163 925.75272 50.6875 895.5625 50.6875L818.4375 50.6875C817.84359 44.50656 813.98533 39.16643 810.5 36.25C806.71293 33.08111 802.24361 31.47047 797.65625 29.84375C788.48157 26.5903499999999 777.83707 25.03125 765.5625 25.03125L895.5625 25.03125C939.62633 25.03125 975.78125 61.1743300000001 975.78125 105.25L975.78125 894.78125C975.78125 938.856926 939.62633 975.03125 895.5625 975.03125z" />
    <glyph glyph-name="select-fragment"
      unicode="&#xEA30;"
      horiz-adv-x="1000" d=" M394.59375 660.46875L532.5625 57.0625L639.96875 236.09375L784.53125 76.96875L911.8125 200.3125L763.3125 363.375L925.0625 413.78125zM423.625 623.46875L876.84375 414.0625L726.9375 372.09375L873.78125 205.0625L780.5 112.75L633 275.09375L540.8125 111.53125zM469.0625 567.4375L553.53125 198.8125L625.65625 326.96875L780.5625 157.8125L830.5 206.0625L679.75 383.28125L807.0625 420.375zM328.41944 828.83195L681.71389 828.83195L681.71389 797.00695L328.41944 797.00695zM843.34375 535.75L805.53125 469.375L834.53125 455.875L871.0625 519.96875zM326.38749 189.8645800000001L142.27882 520.04897L170.0795 535.54584L354.18819 205.36145zM728.625 138.53125L719.9375 122.96875L572.09375 122.96875L553.28125 91.59375L737.5 91.59375L750.34375 114.59375zM915.65625 410.84375L873.21875 397.625L819.59375 301.5625L841.34375 277.6875zM262.5 942.9375L25 517.1875L262.5 91.59375L524.65625 91.59375L517.5 122.96875L279.96875 122.96875L60.03125 517.125L279.96875 911.46875L719.96875 911.46875L939.90625 517.125L891.0625 429.59375L918.90625 416.65625L975 517.1875L737.5 942.9375z" />
    <glyph glyph-name="select-lasso"
      unicode="&#xEA31;"
      horiz-adv-x="1000" d=" M384.46875 680.15625L526.5625 58.75L637.1875 243.09375L786.0625 79.1875L917.15625 206.21875L764.21875 374.21875L930.84375 426.125zM416.34375 642.0625L883.15625 426.34375L728.78125 383.1875L880 211.125L783.9375 116.0625L632 283.3125L537.0625 114.8125zM463.15625 584.375L550.125 204.6875L624.4375 336.6875L783.9375 162.46875L835.40625 212.125L680.125 394.625L811.21875 432.90625zM527.59375 940.71875L531.125 914.0625C531.125 914.0625 532.38189 914.02529 534.15625 913.96875L534.15625 940.5C530.14621 940.649669 527.59375 940.70072 527.59375 940.71875zM471.78125 940.53125C467.07575 940.305896 463.46924 940.124585 456.15625 939.78125L456.15625 913.3125L471.78125 913.90625zM487.375 940L487.375 914.5L493.71875 914.75zM549.78125 939.625L549.78125 913.15625C554.58534 912.806078 559.9115 912.283915 565.375 911.625L565.375 938.15625C559.95196 938.803646 554.66813 939.266762 549.78125 939.625zM440.5625 938.6875C432.88749 937.795267 430.78046 937.557325 424.96875 936.875L424.96875 909.96875C427.73917 910.268788 433.96611 910.942506 440.5625 911.65625zM580.96875 936.53125L580.96875 909.96875C586.81879 909.261308 592.19156 908.478666 596.5625 907.78125L596.5625 934.46875C592.03824 935.152643 586.68247 935.88016 580.96875 936.53125zM409.375 935.0625C408.8571 935.00134 404.625 934.5 404.625 934.5L409.375 925.125zM364.9375 927.21875C364.9375 927.21875 362.90456 926.789733 362.5625 926.71875L362.5625 898.8125C364.50316 899.31651 367.07919 899.99909 368.78125 900.4375C374.40871 901.529394 376.70625 901.972325 378.15625 902.25L378.15625 906.5zM649.9375 924.25L643.8125 898.5625C643.8125 898.5625 650.1614 897.04094 658.96875 894.71875L658.96875 922C653.76536 923.316645 649.9375 924.25 649.9375 924.25zM346.96875 923.1875C342.20004 921.904024 336.96522 920.484389 331.375 918.96875L331.375 890.75C335.19131 891.86654 339.2306500000001 892.9213 343.3125 893.84375C344.64519 894.1845 345.64477 894.44036 346.96875 894.78125zM674.5625 917.90625L674.5625 890.4375C676.60481 889.84082 678.66092 889.19476 680.71875 888.5625C683.92517 887.45619 687.04065 886.40597 690.15625 885.34375L690.15625 913.3125C690.12215 913.32419 690.09665 913.33206 690.06255 913.34375C684.79428 914.987449 679.51242 916.527199 674.56255 917.90625zM315.78125 914.78125C310.06454 913.132098 304.69401 911.351212 300.15625 909.65625L300.15625 889.5625L306.84375 882.5C306.84375 882.5 310.55203 883.83221 315.78125 885.59375zM705.78125 907.9375L705.78125 880.03125C712.54149 877.88957 716.875 875.97892 716.875 876.03125L721.375 884.625L721.375 902.59375C720.05543 903.060016 718.64485 903.522638 717.0625 904.03125C713.97395 905.090181 709.53399 906.645154 705.78125 907.9375zM248.53125 889.625C247.43458 889.48903 243.37834 887.62398 237.78125 884.8125L237.78125 852.40625C243.16586 855.26145 248.50468 858.0274 253.375 860.5L253.375 885.5625L248.84375 889.59375C248.81405 889.65145 248.69479 889.64525 248.53125 889.62505zM768.15625 882.46875L768.15625 852.28125C773.07733 849.67786 778.09938 846.99293 783.78125 844L783.78125 874.0625C778.15922 877.0908 768.81047 882.1160600000001 768.15625 882.46875zM222.15625 876.65625C217.06061 873.92662 211.73619 871.03108 206.5625 868.15625L206.5625 834.84375C209.41284 836.7529999999999 215.19627 840.0846 222.15625 843.9375zM268.96875 871.625L268.96875 868.03125C270.55866 868.7031 271.60007 869.0563999999999 271.90625 869zM799.375 865.65625L799.375 834.03125C805.64073 829.95305 813.92529 824.55458 814.96875 823.875L814.96875 855.84375C810.90898 858.50821 807.40348 860.81944 803.0625 863.65625C801.21343 864.65026 801.20414 864.67243 799.375 865.65625zM752.5625 863L751.3125 861.1875C751.3125 861.1875 752.44815 860.59198 752.5625 860.53125zM190.96875 859.28125C182.70805 854.45809 176.93249 850.82656 177.25 850.3125L190.96875 841.71875zM830.5625 845.59375L830.5625 834.5L837.6875 840.90625C837.6875 840.90625 833.69325 843.5301 830.5625 845.59375zM145 826.78125C145 826.78125 144.3387 826.265 144.15625 826.125L144.15625 785.46875C144.50184 785.77734 144.83832 786.1004 145.1875 786.40625C150.07668 791.41092 155.19453 796.09366 159.78125 800.03125L159.78125 819zM869.1875 815.59375L861.78125 810.25L861.78125 784.90625C865.64155 781.12737 869.83881 776.92562 873.9375 772.5625C875.1882 771.0998099999999 876.13712 770.0068200000001 877.375 768.5625L877.375 807.90625C872.50462 812.56219 869.1875 815.59375 869.1875 815.59375zM128.5625 813.03125C124.10413 809.04672 119.26377 804.52089 114.625 799.65625C114.06491 799.15061 113.51971 798.63671 112.96875 798.125L112.96875 760.53125L119.21875 758.375C119.21875 758.375 122.3243 762.00137 126.96875 767.4375C127.47226 768.07133 128.01025 768.74194 128.5625 769.40625zM892.96875 792.375L892.96875 750.125C896.21532 745.82873 898 742.90625 898 742.90625L908.5625 747.46875L908.5625 774.53125C905.16899 778.54704 902.13683 782.13323 898.46875 786.5C896.64441 788.49019 894.80428 790.4582399999999 892.96875 792.375zM97.375 781.53125C96.724451 780.7270100000001 96.087154 779.92153 95.5 779.15625L87.34375 769.40625L97.375 765.9375zM64.25 736.90625C64.25 736.90625 61.156951 732.84168 57.9375 725.875C55.933778 721.89838 53.127086 716.31709 50.5625 711.21875L50.5625 660.03125L66.15625 658.28125L66.15625 736.40625zM81.78125 732.25L81.78125 699.5C85.1658 706.0899400000001 88.628521 712.82839 91.1875 717.78125C94.248617 724.27293 97.25 728.125 97.25 728.125zM939.78125 718.125L924.15625 713.1875L924.15625 698.125C927.02616 691.95141 930.27305 684.21218 932.78125 676.03125C936.37975 667.4462599999999 938.36316 658.34789 939.78125 651.34375zM955.375 698L955.375 640.4375L970.96875 642.03125L970.96875 644.125C970.67944 645.4545 970.04285 648.3447100000001 968.71875 654.65625C967.24097 662.25626 965.13612 672.33193 961.125 681.9375C959.4501 687.56038 957.41344 693.04112 955.375 698zM34.96875 671.09375C33.246675 665.70244 32.262014 662.1509599999999 32.59375 662.0625L34.96875 661.78125zM26.21875 622.6875C26.21875 622.6875 23.517438 602.3097700000001 26.15625 581.9375C26.525695 561.4069099999999 33.500696 541.82431 32.65625 541.71875L34.96875 541.96875L34.96875 622.34375zM50.5625 621.75L50.5625 543.71875L66.15625 545.46875L66.15625 549.875C64.472157 556.38658 61.007001 569.5231699999999 60.78125 583.21875C58.300774 602.27157 60.84375 621.375 60.84375 621.375zM955.375 601.84375L955.375 522.125L960.84375 520.96875C960.84375 520.96875 962.54861 525.8416500000001 965.1875 533.125C966.77193 540.4337800000001 968.87373 550.17787 970.96875 559.9375L970.96875 601.84375zM939.78125 552.625C938.61676 547.30936 937.50193 542.25917 936.625 538.09375C934.14444 531.39096 932.5625 526.875 932.5625 526.875L939.78125 525.375zM66.15625 507.6875L50.5625 504.8125L50.5625 492.5C53.996278 485.6386 58.683775 476.53891 63.78125 467.625C64.643609 466.32743 65.298965 465.35236 66.15625 464.0625zM81.78125 504.21875L81.78125 440.9375C84.955638 436.7861000000001 87.238934 434.375 87.28125 434.375L97.375 437.875L97.375 475.375C97.135671 475.72481 96.958195 475.99397 96.71875 476.34375C90.440098 487.13193 84.972511 497.82525 81.78125 504.21875zM924.15625 490.59375L924.15625 449.53125C929.61438 457.91403 935.46763 465.9737 939.15625 472.53125C939.53405 473.28112 939.43225 473.0889100000001 939.78125 473.78125L939.78125 485.65625zM908.5625 476.4375C905.28672 471.456 901.30564 465.88684 897.53125 460.1875C896.12196 457.88813 894.56534 455.7098999999999 892.96875 453.625L892.96875 419.40625L897.9375 416.59375C897.9375 416.59375 901.25762 420.50484 906.21875 426.46875C906.94998 427.3651 907.74414 428.2904 908.5625 429.25zM112.96875 452.71875L112.96875 443.25L119.15625 445.40625C119.15625 445.40625 116.5293 448.07922 112.96875 452.71875zM877.375 435.15625C875.09983 432.49726 873.40625 430.53125 873.40625 430.53125L877.375 428.28125zM144.59375 417.84375L144.15625 417.65625L144.15625 377.5625C144.19745 377.5304 144.24005 377.5008000000001 144.28125 377.4688C149.48542 372.9751 154.86508 368.83823 159.78125 365.25005L159.78125 403.56255C157.33942 405.66151 155.12143 407.69452 153.25 409.62505C148.02499 414.63895 144.59375 417.8438 144.59375 417.8438zM128.5625 410.96875L113.9375 404.71875C113.9375 404.71875 117.5736 401.16459 123.0625 395.78125C124.66853 394.09492 126.54446 392.3295500000001 128.5625 390.5zM846.15625 404.125C845.60173 403.6268 842.54892 400.88761 837.25 396.9375C835.4312 395.5096600000001 832.712 393.4258600000001 830.5625 391.75L830.5625 358.125C833.67155 360.15869 833.77694 360.23749 837 362.34375C840.32248 364.97133 842.96295 367.06594 846.15625 369.59375zM861.78125 393.5625L861.78125 381.96875C866.36399 385.62466 869.17401 388.1875 869.21875 388.1875zM175.375 391.125L175.375 354.5625C176.14142 354.0780700000001 177.21875 353.40625 177.21875 353.40625L190.96875 362.03125L190.96875 379.46875C186.20454 382.7733600000001 180.75729 386.75085 175.375 391.125zM814.96875 379.8125L799.375 369.78125L799.375 343L802.3125 339.625C802.3125 339.625 811.19985 345.43746 814.96875 347.90625zM241.71875 351.125C240.51249 349.62963 239.17025 348.1739 237.78125 346.71875L237.78125 312.3125C239.49076 310.80421 241.22708 309.22987 242.96875 307.59375C241.2324 307.1072400000001 239.50194 306.56841 237.78125 306L237.78125 270.78125C242.6973 273.26802 247.91711 275.17448 253.375 276.625L253.375 342.0625C249.40988 345.3516 245.56635 348.3457 241.875 350.9375C241.8221 351.04306 241.77144 351.0195 241.71875 351.125zM222.15625 332.75C220.45698 331.35678 218.76734 329.95828 217.0625 328.5625C218.71152 327.40373 220.55239 325.9505900000001 222.15625 324.75zM268.96875 328L268.96875 279.625C269.11522 279.6442 269.25959 279.6687 269.40625 279.6875C274.46676 273.71571 279.55316 267.4159 284.5625 260.84375L284.5625 313.75C284.03109 313.7216 283.50166 313.6878000000001 282.96875 313.6563C278.23458 318.76784 273.56844 323.5434 268.96875 328.00005zM331.375 314.75L331.375 282C336.5409200000001 281.9564000000001 341.74215 281.77225 346.96875 281.46875L346.96875 314.28125C341.76877 314.54725 336.56804 314.71586 331.375 314.75zM315.78125 314.53125L306.1875 314.34375C304.23729 314.31565 302.17411 314.28495 300.15625 314.25005L300.15625 239.1563C303.36041 234.43846 306.49055 229.64193 309.5625 224.75005C308.92917 224.43339 308.46528 224.0451899999999 307.9375 223.7813C305.31194 222.1943 302.72715 220.77329 300.15625 219.50005L300.15625 184.0313C305.35948 185.78122 310.56975 187.96006 315.78125 190.5938L315.78125 273.5313C313.77101 276.2673200000001 311.77799 278.96998 309.75 281.62505L315.78125 281.7813L315.78125 314.5313zM362.5625 313.1875L362.5625 232.78125C363.59957 234.2186000000001 364.65427 235.67739 365.6875 237.1875C370.22639 243.67918 373.11319 250.6902700000001 375.59375 256.8125C376.5012500000001 259.0567200000001 377.34568 261.0766200000001 378.15625 262.90625L378.15625 311.59375C372.96249 312.2050900000001 367.76714 312.7289100000001 362.5625 313.1875zM393.78125 309.5625L393.78125 276.4375C398.98822 275.6825700000001 404.18197 274.9076700000001 409.375 274.09375L409.375 307.25C404.1917000000001 308.0537900000001 398.9938 308.83241 393.78125 309.5625zM424.96875 304.75L424.96875 271.59375C425.51776 271.50455 426.07669 271.43296 426.625 271.34375C431.24068 270.60011 435.90233 269.81965 440.5625 269.0625L440.5625 302.25C437.68549 302.71645 434.80716 303.1601100000001 431.90625 303.625C429.60206 304.0018700000001 427.2820500000001 304.37374 424.96875 304.75zM456.15625 299.8125L456.15625 293.59375L456.34375 299.78125C456.28115 299.79025 456.21885 299.80345 456.15625 299.81255zM222.15625 299.46875C218.54184 297.60797 214.99522 295.53135 211.5625 293.1875C209.79286 291.9513100000001 208.1394 290.71903 206.5625 289.46875L206.5625 198.28125C211.20083 194.95985 216.42338 192.01208 222.15625 189.4375L222.15625 227.78125C217.33132 232.10536 214.36995 236.9439 213.875 241.71875C213.26298 247.4181200000001 216.18409 253.58994 222.15625 259.59375zM346.96875 273.5C346.35549 272.04493 345.74582 270.60491 345.1875 269.21875C343.12916 264.15207 341.25209 259.40139 338.71875 255.8125C336.87153 253.1736 335.06598 250.69931 333.21875 248.21875C332.606 249.1743 331.99248 250.1153000000001 331.375 251.0625L331.375 185.8125C337.41532 173.53778 342.69249 161.1253000000001 346.96875 148.875zM190.96875 273.21875C181.2558 259.26747 180.48861 246.21607 181.3125 238.15625C182.2599 229.34322 185.58556 221.01821 190.96875 213.5625zM237.78125 218.4375L237.78125 183.625C243.04598 182.03311 248.23423 180.83416 253.375 180.03125L253.375 213.4375C248.335 214.56724 243.15717 216.23825 237.78125 218.4375zM284.5625 213.65625C279.38709 212.34789 274.21024 211.6716800000001 268.96875 211.65625L268.96875 178.8125C274.19876 178.8195 279.39587 179.2639400000001 284.5625 180.125zM362.5625 196.34375L362.5625 66.78125L378.15625 63.53125L378.15625 158.5C373.81062 171.14812 368.5396 183.82276 362.5625 196.34375z" />
    <glyph glyph-name="select-rectangle"
      unicode="&#xEA32;"
      horiz-adv-x="1000" d=" M370 668L516.964950931 25L631.470548846 215.8437495980001L785.498542766 46.156249955L921.21813822 177.687499679L762.847367189 351.531249313L935.277488578 405.249999199zM400.834716976 628.843748729L883.91399527 405.593749199L724.168532205 360.812499293L880.664723188 182.812499668L781.218251657 84.437499875L624.034714656 257.53124951L525.775477156 83.062499878zM449.32385421 569.0312488550001L539.272453499 176.062499682L616.223964458 312.6874993940001L781.280737658 132.343749774L834.550054014 183.812499666L673.836057924 372.749999268L809.555653378 412.281249185zM145.228089182 183L35 183L35 294L145.228089182 294zM68.9285101746 217L111 217L111 260L68.9285101746 260zM855 293.593749435L855 250.656249525L916.063043089 183L965 183L965 293.593749435zM888.662931391 260L931 260L931 217.281249595C885.72246013 214.023929602 888.662931391 217.124669596 888.662931391 259.687499506zM965 865L855 865L855 975L965 975zM888.647654814 899L931 899L931 941L888.647654814 941zM145.228089182 865L35 865L35 975L145.228089182 975zM68.9285101746 899L111 899L111 941L68.9285101746 941zM111.299570009 256L188 256L188 223L111.299570009 223zM224.904679655 256L336 256L336 223L224.904679655 223zM373 256.437549513L373 223L471.662599778 223L464.070550585 256.437549513zM73.5719149371 854L107 854L107 745L73.5719149371 745zM73.5719149371 418L107 418L107 309L73.5719149371 309zM73.5719149371 563L107 563L107 454L73.5719149371 454zM73.5719149371 708L107 708L107 599L73.5719149371 599zM890.494461083 854L924 854L924 745L890.494461083 745zM923.59260628 401.624999207L891 391.312499229L891 309L923.59260628 309zM890.494461083 563L924 563L924 454L890.494461083 454zM890.494461083 708L924 708L924 599L890.494461083 599zM111.299570009 935L188 935L188 902L111.299570009 902zM668.719144239 935L780 935L780 902L668.719144239 902zM816.569362134 935L877 935L877 902L816.569362134 902zM224.904679655 935L336 935L336 902L224.904679655 902zM372.807655731 935L484 935L484 902L372.807655731 902zM520.816168164 935L632 935L632 902L520.816168164 902z" />
    <glyph glyph-name="settings"
      unicode="&#xEA33;"
      horiz-adv-x="1000" d=" M666.66667 500C666.66667 591.79687 591.7968699999999 666.6666700000001 499.9999999999999 666.6666700000001C408.20312 666.6666700000001 333.33333 591.79687 333.33333 500C333.33333 408.20313 408.2031199999999 333.33333 499.9999999999999 333.33333C591.7968699999999 333.33333 666.66667 408.2031299999999 666.66667 499.9999999999999zM1000 570.96354L1000 426.43229C1000 416.66667 992.1875 404.94792 981.77083 402.99479L861.32812 384.76563C854.1666700000001 363.93229 846.3541700000001 344.40104 835.9375 325.52083C858.07292 293.61979 881.51042 264.9739599999999 905.59896 235.67708C909.50521 231.11979 912.10937 225.26042 912.10937 219.40104C912.10937 213.54167 910.15625 208.98438 906.25 204.4270799999999C890.625 183.5937499999999 802.73437 87.8906299999999 780.59896 87.8906299999999C774.73958 87.8906299999999 768.88021 90.4947899999999 763.67187 93.7499999999999L673.82812 164.0624999999999C654.9479200000001 154.2968799999999 634.76562 145.8333299999999 614.58333 139.3229199999999C610.0260400000001 99.6093799999999 606.1197900000001 57.2916699999998 595.70312 18.2291699999998C593.09896 7.8125 583.98437 0 572.26562 0L427.73437 0C416.01562 0 405.5989600000001 8.46354 404.29687 19.53125L386.06771 139.32292C365.88542 145.8333299999999 346.35417 153.6458299999999 327.47396 163.4114599999999L235.67708 93.75C231.11979 89.84375 225.26042 87.89063 219.40104 87.89063C213.54167 87.89063 207.68229 90.49479 203.125 95.0520799999999C168.61979 126.3020799999999 123.04688 166.66667 95.703125 204.4270799999999C92.447917 208.98438 91.145833 214.1927099999999 91.145833 219.40104C91.145833 225.26042 93.098958 229.8177099999999 96.354167 234.375C118.48958 264.32292 142.57812 292.96875 164.71354 323.5677100000001C153.64583 344.4010400000001 144.53125 365.8854200000001 138.02083 388.0208300000001L18.880208 405.5989600000001C7.8125 407.5520800000001 0 417.96875 0 429.0364600000001L0 573.56771C0 583.3333299999999 7.8125 595.0520799999999 17.578125 597.00521L138.67187 615.23437C145.18229 636.06771 153.64583 655.59896 164.0625 675.13021C141.92708 706.38021 118.48958 735.67708 94.401042 764.97396C90.494792 769.53125 87.890625 774.73958 87.890625 780.59896C87.890625 786.45833 90.494792 791.01562 93.75 795.5729200000001C109.375 817.05729 197.26562 912.109375 219.40104 912.109375C225.26042 912.109375 231.11979 909.505208 236.32812 905.598958L326.17187 835.9375C345.05208 845.7031200000001 365.23437 854.1666700000001 385.41667 860.67708C389.9739600000001 900.390625 393.8802100000001 942.708333 404.29687 981.770833C406.90104 992.1875 416.01562 1000 427.73437 1000L572.26562 1000C583.98437 1000 594.40104 991.536458 595.70312 980.46875L613.93229 860.6770799999999C634.1145799999999 854.16667 653.6458299999999 846.35417 672.52604 836.58854L764.97396 906.25C768.88021 910.15625 774.73958 912.109375 780.59896 912.109375C786.45833 912.109375 792.31771 909.505208 796.875 905.598958C831.38021 873.69792 876.95312 833.3333299999999 904.29687 794.92187C907.55208 791.01562 908.85417 785.80729 908.85417 780.59896C908.85417 774.73958 906.90104 770.18229 903.64583 765.625C881.5104200000001 735.6770799999999 857.42187 707.03125 835.28646 676.43229C846.3541700000001 655.59896 855.46875 634.1145799999999 861.9791700000001 612.63021L981.11979 594.40104C992.1875 592.4479200000001 1000 582.03125 1000 570.96354z" />
    <glyph glyph-name="sgroup-data"
      unicode="&#xEA34;"
      horiz-adv-x="1000" d=" M976.99604 322.57106Q976.99604 379.99974 954.71027 433.14271Q932.42451 486.28568 891.2815800000001 527.42863L507.28075 908.000875L454.13778 855.71505L838.1386 475.1428100000001Q901.56731 413.4283900000001 901.56731 322.57106Q901.56731 246.28518 851.85292 195.71364Q802.1385300000001 145.1420999999999 724.9955 145.99925Q637.56675 145.99925 570.70946 210.2851L148.13712 629.42886Q97.565586 680.0003899999999 97.565586 743.4291000000001Q97.565586 792.28635 129.27994 824.0007Q160.99429 855.71505 209.85154 854.85791Q274.1374 854.85791 324.70893 804.28637L647.85248 485.42854Q693.28115 438.28558 693.28115 402.2855Q693.28115 384.28546 679.5668400000001 373.99973Q665.85252 363.71399 646.99534 363.71399Q605.85239 363.71399 573.28089 397.99978L281.8517 686.00041L229.56587 633.7145800000001L520.13792 345.7139600000001Q576.70947 289.1424100000001 646.99534 289.1424100000001Q696.70973 289.1424100000001 732.7098100000001 320.8567700000001Q768.7098800000001 352.5711100000001 768.7098800000001 401.4283600000001Q768.7098800000001 468.2856400000001 700.9954500000001 537.7143700000001L377.8519 856.5722000000001Q305.85175 928.572345 209.85154 928.572345Q130.13709 928.572345 76.994114 876.28653Q23.851143 824.0007 22.993998 743.4291000000001Q22.993998 649.14318 94.994152 577.14303L517.56649 157.99927Q606.7095400000001 71.4276600000001 724.9955 71.4276600000001Q832.13859 71.4276600000001 904.99589 143.42781Q977.85318 215.42797 976.99604 322.57106z" />
    <glyph glyph-name="sgroup"
      unicode="&#xEA35;"
      horiz-adv-x="1000" d=" M791.33334 932.856947L791.33334 880.44861L922.48612 880.44861L922.48612 119.60416L791.33334 119.60416L791.33334 67.14305L975.00001 67.14305L975.00001 932.856947zM225.02778 119.60416L75.138888 119.60416L75.138888 880.44861L225.02778 880.44861L225.02778 932.856947L24.999999 932.856947L24.999999 67.14305L225.02778 67.14305z" />
    <glyph glyph-name="template-0"
      unicode="&#xEA36;"
      horiz-adv-x="1000" d=" M758.78924 315.2843800000001L759.44237 679.1343800000001L793.16737 679.0683800000002L792.51424 315.2183700000001zM201.52187 637.46632L512.50834 826.3381899999999L530.01077 797.51494L219.03091 608.64306zM510.83924 158.3694400000001L199.3448 346.40347L216.77465 375.27951L528.2691 187.23889zM500 25L85.905556 257.69722L85.905556 732.64444L500 975.000002L914.09445 742.35556L914.09445 267.35555zM124.90833 277.54166L500 63.84444L880.26389 286.30278L880.26389 722.4583299999999L500 936.050002L124.90833 713.59167z" />
    <glyph glyph-name="template-1"
      unicode="&#xEA37;"
      horiz-adv-x="1000" d=" M690.45521 207.5319500000001L658.98646 219.04409L781.68161 554.4864600000001L813.15694 542.9743000000001zM303.77222 208.06632L189.20486 551.8014000000001L221.04965 562.41632L335.61702 218.68125zM793.55 48.22222L206.4499999999999 48.22222L24.999999 606.66389L500 951.777781L975.00001 606.61111zM230.83333 81.78889L769.2194499999999 81.78889L935.57501 593.89167L500.05278 910.347225L64.477777 593.89167z" />
    <glyph glyph-name="template-2"
      unicode="&#xEA38;"
      horiz-adv-x="1000" d=" M500 25L85.905556 257.69722L85.905556 732.64444L500 975.000002L914.09445 742.35556L914.09445 267.35555zM124.90833 277.54166L500 63.84444L880.26389 286.30278L880.26389 722.4583299999999L500 936.050002L124.90833 713.59167z" />
    <glyph glyph-name="template-3"
      unicode="&#xEA39;"
      horiz-adv-x="1000" d=" M793.55 48.22222L206.4499999999999 48.22222L24.999999 606.66389L500 951.777781L975.00001 606.61111zM230.83333 81.78889L769.2194499999999 81.78889L935.57501 593.89167L500.05278 910.347225L64.477777 593.89167z" />
    <glyph glyph-name="template-4"
      unicode="&#xEA3A;"
      horiz-adv-x="1000" d=" M975 88.65L24.999994 88.65L500 911.350001zM83.002772 122.16388L917.05 122.16388L500 844.42778z" />
    <glyph glyph-name="template-5"
      unicode="&#xEA3B;"
      horiz-adv-x="1000" d=" M975.00001 25L25.000001 25L25.000001 975.000008L975.00001 975.000008zM59.569446 59.51667L940.43056 59.51667L940.43056 940.430563L59.569446 940.430563z" />
    <glyph glyph-name="template-6"
      unicode="&#xEA3C;"
      horiz-adv-x="1000" d=" M289.3492 36.68962L24.999992 366.69074L118.1476 779.02062L498.65424 963.310385L880.05806 780.7094099999999L975.00001 368.74896L712.23405 37.69235zM61.572961 375.1874900000001L305.55108 70.62385L695.7683 71.52102L938.32149 377.0873900000001L850.66247 757.27738L498.70702 925.787469L147.59596 755.64136z" />
    <glyph glyph-name="template-7"
      unicode="&#xEA3D;"
      horiz-adv-x="1000" d=" M696.79288 25L303.25991 25L25.00001 303.2071200000001L25.00001 696.74009L303.25991 974.99999L696.79288 974.99999L975 696.74009L975 303.2071200000001zM317.2468 58.67409L682.8587699999999 58.67409L941.37869 317.08845L941.37869 682.7532L682.85877 941.273117L317.2468000000001 941.273117L58.726883 682.7532L58.726883 317.08845z" />
    </font>
</defs>
</svg>
