<?xml version="1.0" standalone="no"?> 
<!DOCTYPE svg PUBLIC "-//W3C//DTD SVG 1.1//EN" "http://www.w3.org/Graphics/SVG/1.1/DTD/svg11.dtd" >
<svg xmlns="http://www.w3.org/2000/svg">
<defs>
  <font id="iconfont" horiz-adv-x="1000">
    <font-face font-family="iconfont"
      units-per-em="1024" ascent="1024"
      descent="0" />
    <missing-glyph horiz-adv-x="0" />
    <glyph glyph-name="account"
      unicode="&#xE001;"
      horiz-adv-x="1024" d=" M85.3333333333333 68.2666666666667C85.3333333333333 68.2666666666667 137.4219605333333 293.2375552 202.8747434666667 376.0517188266666C202.8747434666667 376.0517188266666 261.6382122666667 424.1335364266667 291.0198442666667 428.1403528533333C320.4015445333333 432.1471761066668 503.3910135466667 436.1539857066668 503.3910135466667 436.1539857066668L558.15247872 503.1988292266667H583.5273762133334L591.5410090666667 611.1297536L567.5000968533334 636.50463744L556.81849344 703.2865245866667L560.8253166933334 734.00707072H572.8457659733334C572.8457659733334 734.00707072 580.62084096 820.8280029866667 579.52055296 830.1804680533332C578.4251255466667 839.5280861866667 613.0502656 940.6722525866666 699.8663167999999 954.2652381866666C786.6823338666667 967.8631389866666 939.0290261333334 882.5271432533333 939.0290261333334 882.5271432533333L930.8011861333334 735.3508317866667L914.7738794666666 689.93697792L924.1214976000002 687.26413312C924.1214976000002 687.26413312 922.7875669333334 661.8892765866667 912.1010346666668 644.5280187733333C912.1010346666668 644.5280187733333 897.4077952000001 571.0664362666666 860.0124074666668 569.7324509866667L830.6258602666668 484.2504123733333L805.2509354666669 456.1978163199999L785.2168533333336 397.4344021333333L885.3873322666668 275.8860799999999L893.4009514666667 205.0973696C893.4009514666667 205.0973696 951.6142592000002 153.179136 936.5314218666668 68.2763605333332H85.3333333333333z" />
    <glyph glyph-name="arrow-down"
      unicode="&#xE002;"
      horiz-adv-x="1024" d=" M512 204.8L819.2 546.1333333333333L204.8 546.1333333333333z" />
    <glyph glyph-name="arrow-left"
      unicode="&#xE003;"
      horiz-adv-x="1024" d=" M341.3333333333334 512L682.6666666666667 819.2L682.6666666666667 204.8z" />
    <glyph glyph-name="arrow-right"
      unicode="&#xE004;"
      horiz-adv-x="1024" d=" M682.6666666666667 512L341.3333333333334 819.2L341.3333333333334 204.8z" />
    <glyph glyph-name="arrow-up"
      unicode="&#xE005;"
      horiz-adv-x="1024" d=" M512 546.1333333333333L819.2 204.8L204.8 204.8z" />
    <glyph glyph-name="basket"
      unicode="&#xE006;"
      horiz-adv-x="1024" d=" M68.2666666666667 810.9707946666666L79.9708501333333 729.0413056L251.4272938666667 729.0413056L332.3301205333334 259.0248277333333L897.8283178666667 259.0248277333333L955.7333333333333 683.2511658666666L326.5806336 683.2511658666666L305.6362837333334 810.9707946666666L68.2666666666667 810.9707946666666zM389.20845312 205.8425002666667C351.2490257066667 205.8425002666667 320.4205226666667 175.0074709333333 320.4205226666667 137.0546175999999C320.4205226666667 99.0952106666665 351.2490257066667 68.2666666666667 389.20845312 68.2666666666667C427.1415978666667 68.2666666666667 457.9963630933333 99.0952106666665 457.9963630933333 137.0546175999999C457.9963630933333 175.0074709333333 427.1415978666667 205.8425002666667 389.20845312 205.8425002666667zM829.2457130666668 205.8425002666667C791.2942250666667 205.8425002666667 760.4578304 175.0061056 760.4578304 137.0546175999999C760.4578304 99.1031295999999 791.2942250666667 68.2666666666667 829.2457130666668 68.2666666666667C867.1972010666668 68.2666666666667 897.8283178666667 99.1031295999999 897.8283178666667 137.0546175999999C897.8283178666667 175.0061056 867.1972010666667 205.8425002666667 829.2457130666668 205.8425002666667z" />
    <glyph glyph-name="close"
      unicode="&#xE007;"
      horiz-adv-x="1024" d=" M763.0915584 955.7333674666666L511.9218005333334 704.5636300799999L260.9085030400001 955.5769275733334L68.2667281066667 762.9351526400001L319.2800187733334 511.9218551466666L68.2666666666667 260.9085098666666L260.9084347733334 68.2666666666667L511.9217868800001 319.2799914666666L762.9351594666667 68.2666666666667L955.5769344000003 260.9084416L704.5635413333333 511.9218005333333L955.7333333333333 763.0915652266667L763.0916266666668 955.7333394773332z" />
    <glyph glyph-name="minus"
      unicode="&#xE008;"
      horiz-adv-x="1024" d=" M68.2666666666667 375.4666666666666L955.7333333333333 375.4666666666666L955.7333333333333 614.4L68.2666666666667 614.4z" />
    <glyph glyph-name="plus"
      unicode="&#xE009;"
      horiz-adv-x="1024" d=" M68.2666666666667 388.9462340266666L389.07379712 388.9462340266666L389.07379712 68.2666666666667L635.1259648 68.2666666666667L635.1259648 388.9462272L955.7333333333333 388.9462272L955.7333333333333 635.0537864533333L635.1259989333333 635.0538069333334L635.1259989333333 955.7333674666666L389.0738380800001 955.7333674666666L389.0738380800001 635.0538137599999L68.2666666666667 635.0538137599999L68.2666666666667 388.9462545066666z" />
    <glyph glyph-name="search"
      unicode="&#xE00A;"
      horiz-adv-x="1024" d=" M542.1413512533334 955.7334016C351.4121011200001 955.7334016 196.8160768 797.2659199999999 196.8160768 601.7603174399999C196.8160768 502.1695522133332 237.0194773333334 412.2933657599999 301.5926442666667 347.9756458666666L136.5333333333333 144.9745749333333C169.8751829333333 119.4052949333334 203.2170325333334 93.8359466666667 236.5589504 68.2666666666667L413.9754769066667 273.1266730666667C453.6227976533334 256.8645290666667 496.8258286933333 247.7871786666667 542.1413512533333 247.7871786666667C732.870656 247.7871786666666 887.4666666666667 406.2546944 887.4666666666667 601.76031744C887.4666666666667 797.2659199999999 732.870656 955.7334016 542.1413512533334 955.7334016zM542.1413512533334 867.2401408C685.1882325333333 867.2401408 801.1352746666668 748.3895125333333 801.1352746666668 601.7603174399999C801.1352746666668 455.1311018666667 685.1882325333333 336.2804394666666 542.1413512533334 336.2804394666666C399.0944358400001 336.2804394666666 283.1474005333334 455.1311018666665 283.1474005333334 601.7603174399999C283.1474005333334 748.3895125333333 399.0944358400001 867.2401408 542.1413512533334 867.2401408z" />
    <glyph glyph-name="sound--off"
      unicode="&#xE00B;"
      horiz-adv-x="1024" d=" M18 818.054L1006 247.6379999999999V201.9459999999999L18 772.362V818.054zM802.844 443.966L838.966 423.1280000000001C844.214 451.3760000000001 847.922 480.206 847.922 510C847.922 590.0840000000001 828.4300000000001 665.456 794.626 732.34L762.168 708.45C791.498 648.4 808.4 581.2080000000001 808.4 510C808.4 487.502 806.124 465.58 802.844 443.966zM350.092 705.284L650 925.884V707.6V532.0360000000001L690 509.23V707.6V1004L312.894 726.818L350.092 705.284zM966.48 510C966.48 458.7860000000001 957.216 409.8880000000001 941.392 364.002L976.244 343.854C995.076 395.802 1006 451.49 1006 510C1006 657.738 940.816 789.96 838 880.46L805.388 856.496C903.766 773.054 966.48 648.7819999999999 966.48 510zM852.9 211.284C838.12 194.342 822.564 178.096 805.39 163.504L838 139.54C855.946 155.3639999999999 872.232 172.9219999999999 887.748 191.1759999999999L852.9 211.284zM650 328.264V312.4V94.116L283.134 364.1620000000001L272.834 372H259.868H56V648H95.962L27.494 688H18V332H259.866L690 16V305.452L650 328.264z" />
    <glyph glyph-name="sound--on"
      unicode="&#xE00C;"
      horiz-adv-x="1024" d=" M648 920V706.2V311.8V93.958L282.236 363.818L272.316 372.002H259.376H56V646H259.376H272.316L282.756 654.184L648.52 921.762M690 1002L259.376 688H18V330H259.376L690 16V311.8V706.2V1002L690 1002zM836.34 878.71L803.794 854.794C901.972 771.52 964.56 647.502 964.56 509S901.972 246.476 803.794 163.206L836.34 139.29C938.948 229.608 1004 361.562 1004 509S938.948 788.392 836.34 878.71zM806.8 509C806.8 437.938 789.9319999999999 370.8820000000001 760.66 310.952L793.052 287.11C826.788 353.8580000000001 846.24 429.078 846.24 509S826.788 664.142 793.052 730.89L760.66 707.048C789.932 647.1179999999999 806.8 580.062 806.8 509z" />
    <glyph glyph-name="kikoolol"
      unicode="&#xE00D;"
      horiz-adv-x="1024" d=" M512 512L819.2 170.6666666666666L204.8 170.6666666666666z M512 512L819.2 853.3333333333333L204.8 853.3333333333333z" />
    <glyph glyph-name="mute"
      unicode="&#xE00E;"
      horiz-adv-x="439" d=" M439 389.61636V292.61109H341.9947L219.49999 415.1058000000001L97.005274 292.61109H0V389.61636L122.49471 512.11108L0 634.6058V731.6110699999999H97.005274L219.49999 609.11636L341.9947 731.6110699999999H439V634.6058L316.50526 512.11108z" />
    <glyph glyph-name="sound"
      unicode="&#xE00F;"
      horiz-adv-x="439" d=" M55.603405 251.73325C41.371692 251.73325 27.144622 257.16136 16.28608 268.0175900000001C-5.4286933 289.7323600000001 -5.4286933 324.93516 16.28608 346.6499300000001C110.22972 440.5935800000001 110.22972 593.4495000000001 16.28608 687.39083C-5.4286933 709.1056000000001 -5.4286933 744.3107200000001 16.28608 766.02317C38.000843 787.73562 73.203646 787.73562 94.918419 766.02317C232.21978 628.72181 232.21978 405.31664 94.918419 268.0152700000001C84.062188 257.1613600000001 69.832797 251.7332500000001 55.603405 251.7332500000001zM253.11673 146.88936C238.88503 146.88936 224.65795 152.31747 213.79941 163.1737000000001C192.08696 184.8861500000001 192.08696 220.09127 213.79941 241.8060400000001C365.55256 393.5592000000001 365.55256 640.4815600000001 213.79941 792.23473C192.08696 813.94949 192.08696 849.15461 213.79941 870.8670500000001C235.51185 892.57719 270.7193 892.57951 292.43174 870.8670500000001C386.94762 776.3534999999999 439 650.6891 439 517.02269C439 383.35861 386.9476200000001 257.6918900000001 292.43174 163.17601C281.57552 152.3174700000001 267.34613 146.88936 253.11673 146.88936z" />
    <glyph glyph-name="speaker"
      unicode="&#xE010;"
      horiz-adv-x="511.9057" d=" M458.58066 1007.144596C487.91011 1036.474046 511.90569 1026.533026 511.90569 985.054949V38.94353C511.90569 -2.5345 487.91011 -12.4732999999999 458.5806600000001 16.8562000000001L182.82346 292.61109H-3.417969e-7V731.3874000000001H182.82346L458.58066 1007.144596z" />
    <glyph glyph-name="diegoliv"
      unicode="&#xE011;"
      horiz-adv-x="989.3668797690245" d=" M495.0002062280884 1024C569.5458857496392 1024 601.0113425448546 975.6403382140649 651.0604248298619 959.379665910497C701.3206846772531 943.1189936069292 735.5314497834605 969.938544029697 795.9282326252836 926.2247886162094C856.1138379047227 882.5110332027223 853.3685295937308 824.6483811095071 884.2004537017941 782.2016910703238C915.2435553722418 739.5438234687565 958.746133223345 741.0220664054444 981.7644875232008 670.0664054444215C1004.7828418230562 599.3219220457826 968.460301093009 554.3411012579913 968.460301093009 501.5467106619922C968.460301093009 448.752320065993 1004.5716642606724 424.2557228294494 981.553309960817 353.5112394308105C958.5349556609614 282.7667560321716 902.7840791915862 267.5619715405238 871.7409775211386 224.9041039389565C840.697875850691 182.2462363373893 855.6914827799549 141.2777892348938 795.2946999381318 97.3528562590226C735.1090946586927 53.6391008455352 681.0476386883895 74.123324396783 630.9985564033823 57.8626520932152C580.738296555991 41.6019797896473 568.7011755001032 -0.422355124768 494.3666735409365 -0.422355124768S388.3555372241701 47.9373066611672 338.3064549391629 64.1979789647351C288.2573726541558 80.4586512683028 253.8354299855643 53.6391008455352 193.4386471437412 97.3528562590225C133.2530418643021 141.0666116725098 135.9983501752941 198.929263765725 105.1664260672305 241.3759538049082C74.123324396783 284.0338214064755 30.6207465456796 282.5555784697875 7.602392245824 353.5112394308105C-15.4159620540316 424.2557228294494 20.9065786760159 469.2365436172407 20.9065786760159 522.0309342132398C20.9065786760159 574.825324809239 -15.2047844916476 599.3219220457827 7.8135698082081 670.0664054444215C30.8319241080637 740.8108888430604 86.5828005774389 756.0156733347083 117.6259022478864 798.6735409362756C148.6690039183339 841.3314085378429 133.6753969890701 882.2998556403383 194.0721798308932 926.2247886162096C254.2577851103322 969.938544029697 308.3192410806355 949.4543204784492 358.3683233656426 965.714992782017C408.4174056506497 981.9756650855846 420.6657042689214 1024 495.0002062280884 1024L495.0002062280884 1024z" />
    <glyph glyph-name="hannesjohansson"
      unicode="&#xE012;"
      horiz-adv-x="1024" d=" M72 615.9680000000001C72 439.52 215.552 295.9680000000001 392 295.9680000000001C459.552 295.9680000000001 522.1759999999999 317.1200000000001 573.856 352.9920000000001L815.424 111.4240000000001C831.04 95.8080000000001 851.52 88.0000000000001 872 88.0000000000001S912.96 95.8080000000001 928.576 111.4240000000001C959.84 142.6560000000001 959.84 193.2800000000001 928.576 224.5440000000001L678.624 474.4960000000001C699.808 517.2160000000001 712.032 565.152 712.032 615.9680000000001C712.032 792.416 568.48 935.968 392.0320000000001 935.968S72.032 792.4480000000001 72.0000000000001 615.9680000000001zM200.032 615.9680000000001C200.032 721.856 286.144 807.9680000000001 392.0320000000001 807.9680000000001S584.032 721.856 584.032 615.9680000000001S497.9200000000001 423.9680000000001 392.0320000000001 423.9680000000001S200.0320000000001 510.08 200.0320000000001 615.9680000000001z" />
    <glyph glyph-name="roelvanhitum"
      unicode="&#xE013;"
      horiz-adv-x="1024" d=" M761.344 656.384H715.9808L512 424.448L308.0192 656.384H262.656L512 367.616L761.344 656.384z" />
    <glyph glyph-name="safety-icon"
      unicode="&#xE014;"
      horiz-adv-x="1024" d=" M974.8053333333334 816.0853333333333C963.0293333333334 850.7733333333333 885.1626666666667 1023.744 511.9573333333333 1023.744C138.7946666666667 1023.744 61.0133333333333 850.7306666666667 49.152 816.0853333333333L43.008 797.8666666666667V778.624C43.008 309.2053333333334 431.1040000000001 52.6080000000002 447.6160000000001 41.8986666666667L511.9573333333334 0.2133333333334L576.3413333333334 41.8986666666667C592.8533333333335 52.6080000000001 980.9920000000002 309.2053333333334 980.9920000000002 778.624V797.8666666666666L974.8053333333334 816.0853333333332zM512.384 85.3333333333334C512.384 85.3333333333334 128.4693333333335 356.5653333333334 128.4693333333335 768C128.4693333333335 768 204.8853333333335 938.6666666666666 512.384 938.6666666666666C819.9253333333334 938.6666666666666 896.2986666666667 768 896.2986666666667 768C896.2986666666667 356.5653333333334 512.384 85.3333333333334 512.384 85.3333333333334zM466.176 562.2186666666666L384.4693333333335 643.328L301.1413333333334 560.64L466.176 396.8L762.9226666666666 691.4133333333333L679.5946666666666 774.144L466.176 562.2186666666666z" />
    <glyph glyph-name="sb-icon"
      unicode="&#xE015;"
      horiz-adv-x="1021.5191677354994" d=" M758.6239133532848 437.283169445632H583.1415134672937V261.8007695596409H447.5713267778253V437.283169445632H272.0889268918342V572.8533561351005H447.6442924326636V748.4087216759299H583.2144791221319V572.8533561351005H758.6968790081231V437.283169445632zM984.9633746615362 512C984.9633746615362 250.0532991306827 772.6333190822288 37.7232435513753 510.6866182129115 37.7232435513753S36.4098617642868 250.0532991306827 36.4098617642868 512S248.7399173435942 986.2767564486248 510.6866182129115 986.2767564486248S984.9633746615362 773.9467008693174 984.9633746615362 512M892.8807182556648 512C892.8807182556648 723.2355707567338 721.8492233148069 894.1941000427535 510.6866182129115 894.1941000427535C299.4510474561778 894.1941000427535 128.4925181701581 723.2355707567338 128.4925181701581 512C128.4925181701581 300.6914635884281 299.4510474561778 129.8058999572468 510.6866182129115 129.8058999572468C721.9951546244833 129.8058999572468 892.8807182556648 300.7644292432665 892.8807182556648 512.0000000000001" />
    <glyph glyph-name="settings-icon"
      unicode="&#xE016;"
      horiz-adv-x="1024" d=" M785.4933333333333 561.0666666666667L746.5813333333333 561.2373333333334C741.4613333333333 592 730.624 620.7146666666667 715.1360000000001 646.4000000000001L741.9306666666668 673.4506666666667C760.2773333333334 691.84 760.1920000000001 721.5786666666668 741.8453333333334 739.8826666666668C723.5840000000001 758.1866666666667 693.7173333333335 758.144 675.4986666666668 739.7546666666667L652.0320000000002 716.0746666666668C625.5786666666668 735.8293333333334 595.0293333333334 750.336 561.7920000000001 758.0160000000001L561.4506666666668 785.152C561.4506666666668 811.0933333333334 540.4160000000002 832 514.4320000000001 832C488.6186666666668 832.0853333333334 467.5413333333335 810.9226666666667 467.5840000000001 784.9813333333334L467.9253333333334 761.0880000000001C434.0906666666666 755.5840000000001 402.56 743.2533333333333 374.8693333333333 725.2906666666667L355.456 744.3626666666667C337.0666666666667 762.7093333333333 307.3706666666667 762.7093333333333 289.1093333333333 744.32C270.848 725.9733333333334 270.8906666666667 696.192 289.1946666666667 678.0160000000001L307.328 660.096C287.3173333333333 631.3386666666668 273.4933333333334 598.144 267.3493333333334 562.2186666666666L238.6346666666667 562.56C212.736 562.6453333333334 191.6586666666667 541.6533333333333 191.6586666666667 515.6693333333333C191.616 489.7706666666667 212.608 468.736 238.464 468.6933333333334L269.568 468.3093333333334C277.12 434.176 291.8826666666667 402.9013333333334 312.1493333333334 375.808L290.1333333333334 353.408C271.8293333333334 335.1040000000001 271.8293333333334 305.4080000000002 290.2186666666667 287.0613333333333C308.5653333333334 268.8 338.304 268.8 356.608 287.1893333333333L381.7813333333334 312.7893333333334C407.7653333333334 297.1306666666667 436.8640000000001 286.2506666666667 467.968 281.2160000000001L468.352 238.9333333333334C468.3946666666666 213.0773333333334 489.3866666666667 192.0426666666667 515.328 192.0426666666667C541.2693333333333 192.1280000000001 562.2186666666666 213.1200000000001 562.1759999999999 239.0613333333335L561.7919999999999 284.2453333333335C591.1466666666666 291.0293333333334 618.5386666666666 302.9333333333334 642.7733333333333 319.2320000000002L673.28 289.1520000000003C691.6693333333333 270.8053333333336 721.4079999999999 270.8906666666669 739.712 289.2800000000002C757.9733333333334 307.5413333333336 757.9733333333334 337.3653333333335 739.584 355.6266666666669L709.0773333333333 385.6640000000002C725.504 410.1120000000003 737.4506666666666 437.7600000000002 744.1066666666667 467.4133333333336L785.5360000000001 467.2000000000003C811.392 467.1573333333336 832.4693333333335 488.1920000000002 832.4693333333335 514.0480000000002C832.384 539.9466666666667 811.4773333333333 561.024 785.4933333333333 561.0666666666667zM506.9226666666667 400.8960000000001C440.6186666666667 400.8960000000001 386.688 454.8693333333334 386.688 521.1306666666667C386.688 553.2586666666667 399.1893333333333 583.424 421.9306666666667 606.1653333333334C444.6293333333334 628.9066666666668 474.8373333333334 641.4080000000001 506.9226666666667 641.4080000000001C573.2266666666667 641.3226666666667 627.1573333333333 587.392 627.1573333333333 521.1306666666668S573.2266666666667 400.8960000000001 506.9226666666667 400.8960000000001z" />
    <glyph glyph-name="track-icon"
      unicode="&#xE017;"
      horiz-adv-x="1024" d=" M512 718.3871999999999C656.9472000000001 718.3871999999999 801.8432 646.0927999999999 888.7296000000001 501.6064V472.7808C801.8432000000001 328.3968 656.9472000000001 256.1023999999999 512 256.1023999999999C367.1040000000001 256.1023999999999 222.2592 328.3967999999999 135.3216 472.7807999999999V501.6063999999999C222.208 646.0927999999999 367.0528 718.3871999999999 512 718.3871999999999M512 820.0192C317.4400000000001 820.0192 140.8 719.4623999999999 39.5264 551.1168L25.6 527.9744V501.5551999999999V472.7295999999999V446.3104L39.4752 423.2704C140.8000000000001 254.9247999999999 317.3888 154.4191999999998 512 154.4191999999998S883.2 254.9759999999999 984.576 423.3215999999999L998.4512 446.3615999999999V472.7807999999998V501.6063999999998V527.9743999999998L984.576 551.0655999999999C883.2 719.4623999999999 706.5600000000001 820.0192 512 820.0192zM707.1232 487.2704C707.1232 381.8495999999999 619.9296 296.3456 512.2048 296.3456C404.5312 296.3456 317.2352 381.8496 317.2352 487.2704S404.48 678.144 512.1536 678.144C619.8784 678.144 707.1232 592.6399999999999 707.1232 487.2704z" />
    <glyph glyph-name="web-icon"
      unicode="&#xE018;"
      horiz-adv-x="1024" d=" M865.6896000000002 845.8752L863.8976000000001 847.6672C850.6368000000001 860.0064 806.5024000000001 901.12 791.9616000000001 911.8208C776.4992000000002 923.2896 721.3056000000001 950.272 698.3168000000001 961.2288L695.9104000000001 962.304C637.3888000000001 986.2656 575.5392 998.4 512.0512000000001 998.4C243.7632000000001 998.4 25.6000000000001 780.2368 25.6000000000001 511.9488C25.6000000000001 243.7631999999999 243.7632000000001 25.5999999999999 512.0512000000001 25.5999999999999C780.2880000000001 25.5999999999999 998.4 243.7631999999999 998.4 511.9488C998.4 636.6208 951.296 755.2 865.6896000000002 845.8752000000001zM687.5648000000001 847.5648L688.4352000000001 846.7456C687.6160000000001 847.36 687.2576000000001 847.872 686.3360000000001 848.5376L687.5648000000001 847.5648zM110.6944000000002 511.9488C110.6944000000002 534.8864000000001 113.0496000000001 557.2096 116.7360000000001 579.1232C119.2448000000001 556.9536 130.5088000000002 535.808 157.9008000000001 508.6207999999999C184.0640000000001 482.7135999999999 205.0048000000001 450.9183999999999 220.3648000000001 417.4336C235.2640000000001 384.9727999999999 189.0816000000001 364.0831999999999 205.5680000000001 326.1439999999999C232.8064000000002 263.6288 310.4768000000002 242.8928 337.4592000000002 180.4799999999999C344.7808000000002 163.584 355.2256000000002 149.0431999999999 367.1040000000002 136.3456C217.2416000000001 194.9695999999999 110.6944000000002 340.992 110.6944000000002 511.9488zM470.2208000000002 110.8992C477.4400000000002 119.1424000000001 490.3424000000002 127.6927999999999 508.2624000000002 122.6239999999999C508.1088000000002 182.2208000000001 589.7216000000002 203.0592 593.7664000000002 272.8448C595.5584000000002 300.7488 444.1088000000002 312.6271999999999 430.5920000000002 321.9456C449.5360000000002 375.296 386.2016000000002 356.5056 373.4016000000002 398.1824000000001C354.4064000000003 417.1776000000001 333.4656000000002 427.1104000000001 308.6336000000003 436.736C248.5760000000002 443.8528 229.5808000000002 464.7936000000001 178.2784000000002 495.7184C181.6064000000002 505.3440000000001 175.4112000000002 524.0832 178.8416000000002 536.7296C145.7152000000002 539.648 149.1968000000002 555.4688 148.8384000000002 588.6464C160.4096000000003 596.0704 168.0384000000003 606.7711999999999 171.7760000000003 620.9024C196.6080000000002 620.0319999999999 209.1520000000003 604.7744 229.6320000000003 616.2431999999999C243.7632000000003 564.8384 255.7440000000003 680.8063999999999 249.2416000000003 549.1712C256.5120000000003 555.2639999999999 263.7824000000002 561.3567999999999 270.9504000000003 567.4495999999999C263.3728000000003 588.6463999999999 258.9696000000003 579.3279999999999 276.1216000000003 610.2015999999999C276.6336000000003 612.0447999999999 431.3088000000003 670.6687999999999 470.8352000000003 681.472C452.6080000000003 686.2335999999999 451.2256000000003 693.1967999999999 466.6880000000003 702.3103999999998C453.5296000000003 700.7231999999999 440.4736000000003 698.3679999999999 427.5712000000003 695.3471999999999C463.2576000000003 724.6847999999999 500.1728000000003 705.5871999999999 538.1120000000003 737.6383999999998C516.5056000000003 736.2559999999999 502.7328000000002 742.8095999999998 518.8608000000003 772.4543999999999C512.3072000000003 775.6799999999998 473.4464000000003 799.1295999999999 467.8656000000003 800.1535999999999C467.2000000000003 783.1039999999999 394.2912000000003 733.4911999999999 389.9392000000003 746.6496C370.0224000000003 770.0991999999999 371.1488000000003 781.8752 397.3632000000003 795.136C425.5744000000003 811.52 469.2992000000002 818.6879999999999 488.3968000000003 835.8399999999999C487.0656000000003 848.896 480.0512000000003 849.7151999999999 467.3536000000003 838.2463999999999C466.3296000000003 848.896 465.3568000000003 859.5455999999999 464.3840000000003 870.1951999999999C450.0480000000004 846.1823999999999 353.0752000000004 826.7263999999999 338.5344000000003 843.6736C343.9616000000003 844.8 398.2848000000003 851.6095999999999 370.3296000000003 860.6207999999999C356.3520000000003 873.728 373.3504000000003 860.5183999999999 340.5312000000004 872.2944C342.1184000000003 874.6496 342.3744000000003 875.7248 343.2960000000004 877.4656C394.7008000000004 901.5296 451.7376000000003 915.3536 512.0512000000003 915.3536C514.8160000000004 915.3536 517.5296000000003 915.0464 520.2944000000003 914.944C510.7712000000004 909.4143999999998 501.6064000000003 901.7856 490.2912000000003 889.9584C521.3696000000003 888.064 525.1072000000003 846.2847999999999 515.5328000000003 827.3919999999999C517.8368000000004 814.2847999999999 515.2768000000003 792.1152 538.8800000000003 793.0368C639.7952000000004 796.9792 597.1456000000003 870.1951999999999 587.5200000000003 908.1856C608.5632000000003 904.1407999999998 629.1968000000003 898.048 649.4720000000003 890.5727999999999C663.9104000000003 869.0688 671.5392000000003 846.2847999999999 691.4560000000004 830.0544C696.7808000000003 832.7167999999999 697.4976000000004 836.352 694.3232000000003 840.8575999999999L696.1152000000003 839.0655999999999L698.1120000000003 836.9663999999999L700.0576000000003 834.8671999999999C714.8544000000003 841.3183999999999 701.2352000000003 856.3711999999999 687.5648000000003 873.6256C698.9824000000003 867.9423999999999 709.9392000000003 862.3616 719.0016000000004 857.5999999999999C731.9552000000003 845.6704 742.1952000000003 830.6687999999999 742.5536000000004 809.7792C720.1792000000005 816.5375999999999 731.0336000000004 797.952 708.7104000000004 822.6815999999999C707.3280000000004 813.6704 715.1104000000005 795.8527999999999 715.2128000000005 782.2847999999999C707.3280000000004 785.1519999999999 692.8896000000004 788.6335999999999 687.3088000000005 796.3136L685.7728000000005 798.5663999999999L684.1856000000005 800.8703999999999L682.5984000000004 803.0719999999999L680.9088000000005 805.376L679.3216000000004 807.5776L677.7344000000004 809.8303999999999C674.5600000000004 802.3039999999999 683.3152000000005 776.3967999999999 698.4192000000004 760.3199999999999C702.2080000000004 753.5103999999999 721.5104000000005 730.3679999999999 725.0944000000004 724.8896C712.5504000000005 720.2303999999999 699.3408000000004 718.3871999999999 685.5680000000004 719.3599999999999C691.9680000000004 707.1743999999999 698.2656000000004 694.9887999999999 704.5632000000005 682.8031999999998L701.4400000000005 679.8335999999999L702.1056000000004 678.0927999999999L702.7200000000005 676.4032L703.3856000000005 674.6623999999999L703.9488000000005 673.0239999999999L704.5120000000004 671.3855999999998L705.1264000000004 669.7983999999999L705.6896000000004 668.2623999999998C713.0112000000004 668.6207999999999 741.5296000000003 679.4751999999999 752.8448000000003 684.3904C726.4768000000004 746.0863999999999 781.7216000000003 751.616 812.2368000000004 712.3968C800.6656000000003 734.7199999999999 791.2960000000003 737.5871999999999 777.4208000000003 748.8C788.0704000000004 762.0095999999999 834.5600000000004 714.6496 834.8672000000005 714.4959999999999C836.3008000000004 724.4287999999999 826.7264000000005 750.8992 818.5856000000005 771.6351999999999C820.1216000000004 769.7408 821.8112000000006 767.9487999999999 823.3984000000005 766.0031999999999C825.3440000000005 752.4864 837.2736000000004 731.136 846.7968000000005 723.5072C841.9840000000004 730.9312 840.8064000000004 736.4096 842.3424000000005 740.4544C853.0944000000005 724.8384 862.8224000000005 708.7103999999999 871.2192000000005 691.8656C856.3712000000005 674.2528 848.0768000000004 688.2816 839.6288000000004 660.992C776.4992000000004 669.0816 811.9808000000005 683.0591999999999 733.6448000000005 661.5552C736.6656000000004 659.9680000000001 737.4848000000004 657.5104 736.2048000000004 654.336L734.9248000000005 654.0799999999999L733.5936000000005 653.7216000000001L732.2624000000005 653.4144L730.9312000000004 653.0047999999999L729.4464000000005 652.6976L727.8592000000004 652.288L726.3232000000005 651.9295999999999C709.8880000000005 610.56 687.3088000000005 568.8320000000001 661.1968000000005 531.5072C664.3712000000005 506.0608 720.8448000000004 354.2528 756.4800000000005 410.5728000000001C806.0416000000005 422.144 859.0848000000005 460.4416 855.9104000000005 387.1232C853.8624000000005 339.8656 838.6048000000005 293.2224 816.5888000000004 250.0095999999999C742.9120000000005 163.6351999999998 633.8560000000006 108.6975999999999 512.0512000000004 108.6975999999999C497.9200000000005 108.6975999999999 483.9424000000005 109.5167999999998 470.2208000000005 110.8991999999998z" />
    <glyph glyph-name="roundedrect"
      unicode="&#xE019;"
      horiz-adv-x="1024" d=" M1024 682.6666666666666H2389.3333333333335A682.6666666666667 1365.3333333333335 0 0 0 3072 -682.6666666666667V-682.6666666666667A682.6666666666667 1365.3333333333335 0 0 0 2389.3333333333335 -2048H1024A682.6666666666667 1365.3333333333335 0 0 0 341.3333333333334 -682.6666666666667V-682.6666666666667A682.6666666666667 1365.3333333333335 0 0 0 1024 682.6666666666666z" />
    <glyph glyph-name="circle"
      unicode="&#xE01A;"
      horiz-adv-x="1024" d=" M375.4666666666667 682.6666666666666C375.4666666666667 607.2613888231023 436.5947221564357 546.1333333333333 512 546.1333333333333C587.4052778435645 546.1333333333333 648.5333333333334 607.2613888231023 648.5333333333334 682.6666666666666C648.5333333333334 758.071944510231 587.4052778435645 819.2 512 819.2C436.5947221564357 819.2 375.4666666666667 758.071944510231 375.4666666666667 682.6666666666666z M375.4666666666667 341.3333333333333C375.4666666666667 265.9280554897689 436.5947221564357 204.8 512 204.8C587.4052778435645 204.8 648.5333333333334 265.9280554897689 648.5333333333334 341.3333333333333C648.5333333333334 416.7386111768978 587.4052778435645 477.8666666666667 512 477.8666666666667C436.5947221564357 477.8666666666667 375.4666666666667 416.7386111768978 375.4666666666667 341.3333333333333z" />
    <glyph glyph-name="ellipse"
      unicode="&#xE01B;"
      horiz-adv-x="1024" d=" M375.4666666666667 682.6666666666666C375.4666666666667 569.5587499013202 436.5947221564357 477.8666666666667 512 477.8666666666667C587.4052778435645 477.8666666666667 648.5333333333334 569.5587499013202 648.5333333333334 682.6666666666666C648.5333333333334 795.7745834320132 587.4052778435645 887.4666666666667 512 887.4666666666667C436.5947221564357 887.4666666666667 375.4666666666667 795.7745834320132 375.4666666666667 682.6666666666666z M307.2000000000001 341.3333333333333C307.2000000000001 265.9280554897689 398.8920832346535 204.8 512 204.8C625.1079167653465 204.8 716.8000000000001 265.9280554897689 716.8000000000001 341.3333333333333C716.8000000000001 416.7386111768978 625.1079167653465 477.8666666666667 512 477.8666666666667C398.8920832346535 477.8666666666667 307.2000000000001 416.7386111768978 307.2000000000001 341.3333333333333z" />
    <glyph glyph-name="lines"
      unicode="&#xE01C;"
      horiz-adv-x="1024" d=" M68.2666666666667 819.2L75.0933333333333 812.3733333333333L962.56 402.7733333333333L955.7333333333333 409.5999999999999z" />
    <glyph glyph-name="polygon"
      unicode="&#xE01D;"
      horiz-adv-x="1024" d=" M68.2666666666667 819.2L68.2666666666667 409.5999999999999L955.7333333333333 409.5999999999999L955.7333333333333 819.2z" />
    <glyph glyph-name="polyline"
      unicode="&#xE01E;"
      horiz-adv-x="1024" d=" M68.2666666666667 819.2L68.2666666666667 409.5999999999999L955.7333333333333 409.5999999999999L955.7333333333333 819.2L68.2666666666667 819.2" />
    <glyph glyph-name="rect"
      unicode="&#xE01F;"
      horiz-adv-x="1024" d=" M68.2666666666667 409.5999999999999H955.7333333333333V204.8H68.2666666666667V409.5999999999999z" />
    <glyph glyph-name="bottomleft"
      unicode="&#xE020;"
      horiz-adv-x="1024" d=" M204.8 204.8L204.8 409.6L409.6 409.6L409.6 204.8z" />
    <glyph glyph-name="center"
      unicode="&#xE021;"
      horiz-adv-x="1024" d=" M409.6 409.6L409.6 614.4L614.4 614.4L614.4 409.6z" />
    <glyph glyph-name="topright"
      unicode="&#xE022;"
      horiz-adv-x="1024" d=" M614.4 819.2L614.4 614.4L819.2 614.4L819.2 819.2z" />
  </font>
</defs>
</svg>
